Самая красивая / Bellissima (Лукино Висконти / Luchino Visconti) [1951, Италия, трагикомедия, Screener > DVD] [Советская прокатная копия] Dub (Горького)

Ответить на тему
Статистика раздачи [Обновить пиров]
Размер:  4.32 GB   |    Зарегистрирован:  16 дней   |    Скачан:  0 раз

Полного источника не было: Никогда

 
   
 
 
 
Автор Сообщение

galltoto.com

Создавать темы 02-Янв-2019 22:29

[Цитировать]

Самая красивая / Bellissima [Советская прокатная копия]- Страна: Италия
Жанр: трагикомедия
Год выхода: 1951
Продолжительность: 01:29:18-Перевод: Профессиональный (дублированный) - Киностудия им. М. Горького
Субтитры: нет-Режиссер: Лукино Висконти / Luchino Visconti
В ролях: Анна Маньяни, Вальтер Кьяри, Тина Апичелла, Гастон Рензелли, Текла Скарано, Лола Браччини, Алессандро Блазетти...- | : -Описание: Маддалена Чеккони, жена простого рабочего, узнав, что на киностудии объявлен конкурс среди девочек 6-8 лет на главную роль, решает, что её дочери, малышке Марии, уготована судьба большой кинозвезды и всеми способами добивается кинопроб. Мария, лишенная особых талантов, подводит мать на пробах, но путь в кино как единственная возможность выбиться из нищеты кажется Маддалене настолько очевидным, что она идёт на все ухищрения в попытках прийти к заветной цели. Драматическая развязка наступает, когда мать и дочь тайком наблюдают за реакцией режиссёра на просмотре отснятого материала...-Семпл: http://sendfile.su/1464620-Тип релиза: Screener
Формат файла: DVD-Video
Видео: PAL 720x576 (4:3) @ 768x576, 25.000 fps, MPEG-2 Video, ~6550 Kbps, 0.632 bits/pixel
Аудио: Русский, 48.0 KHz, AC3, 2 ch, 256 Kbps

DVDInfo

Title: Самая красивая 1951 Dub ГорькогоSize: 4.32 Gb ( 4 529 998,00 KBytes ) - DVD-5Enabled regions: 1, 2, 3, 4, 5, 6, 7, 8
VTS_01 : Play Length: 01:29:18 Video: PAL 4:3 (720x576) VBR Audio: Russian, AC3, 2/0 (L,R) ch, 256 kbps, Delay 0 mSec

MediaInfo

GeneralComplete name : \Самая красивая 1951 Dub Горького\VIDEO_TS\VTS_01_1.VOBFormat : MPEG-PSFile size : 1 024 MiBDuration : 20 min 40 sOverall bit rate mode : VariableOverall bit rate : 6 925 kb/s
VideoID : 224 (0xE0)Format : MPEG VideoFormat version : Version 2Format profile : Main@MainFormat settings : CustomMatrix / BVOPFormat settings, BVOP : YesFormat settings, Matrix : CustomFormat settings, GOP : M=3, N=15Duration : 20 min 40 sBit rate mode : VariableBit rate : 6 550 kb/sWidth : 720 pixelsHeight : 576 pixelsDisplay aspect ratio : 4:3Frame rate : 25.000 FPSStandard : PALColor space : YUVChroma subsampling : 4:2:0Bit depth : 8 bitsScan type : ProgressiveCompression mode : LossyBits/(Pixel*Frame) : 0.632Time code of first frame : 00:00:00:00Time code source : Group of pictures headerGOP, Open/Closed : OpenGOP, Open/Closed of first frame : ClosedStream size : 966 MiB (94%)
AudioID : 189 (0xBD)-128 (0x80)Format : AC-3Format/Info : Audio Coding 3Commercial name : Dolby DigitalMuxing mode : DVD-VideoDuration : 20 min 40 sBit rate mode : ConstantBit rate : 256 kb/sChannel(s) : 2 channelsChannel layout : L RSampling rate : 48.0 kHzFrame rate : 31.250 FPS (1536 SPF)Bit depth : 16 bitsCompression mode : LossyStream size : 37.8 MiB (4%)Service kind : Complete Main
Menu


[galltoto.com]_t_5666572.torrent
Торрент: Зарегистрирован ·  [ 2019-01-02 22:29 ] ·  84395aa1ab512da0e3c5480f6a7e7dc30142e4ee

23 KB

Статус: проверено
Скачан: 0 раз
Размер: 4.32 GB
Оценка: 
(Голосов: 0)
Сказали спасибо: 0  Спасибо
Похожие темы
[Профиль]    [ЛС]
Показать сообщения:    
Ответить на тему

Текущее время: Сегодня 03:52

Часовой пояс: GMT + 7



Вы не можете начинать темы
Вы не можете отвечать на сообщения
Вы не можете редактировать свои сообщения
Вы не можете удалять свои сообщения
Вы не можете голосовать в опросах
Вы не можете прикреплять файлы к сообщениям
Вы можете скачивать файлы


Lobisomem O Apocalipse | Dragon Ball Z Hg 22 Saibaman Figure Figura Bandai | ROMs and modifications