Профессия - репортёр / The Passenger / Professione: reporter (Микеланджело Антониони / Michelangelo Antonioni) [1975, Италия, Испания, Франция, драма, детектив, HDRip] AVO (Визгунов)

Ответить на тему
Статистика раздачи [Обновить пиров]
Размер:  1.45 GB   |    Зарегистрирован:  16 дней   |    Скачан:  0 раз

Полного источника не было: Никогда

 
   
 
 
 
Автор Сообщение

galltoto.com

Создавать темы 02-Янв-2019 22:29

[Цитировать]

Профессия - репортёр / The Passenger / Professione: reporter
Страна: Италия, Испания, Франция
Жанр: драма, детектив
Год выхода: 1975
Продолжительность: 02:05:56
Перевод: Авторский (одноголосый закадровый) Визгунов
Субтитры: нет
Оригинальная аудиодорожка: нет
Режиссер: Микеланджело Антониони / Michelangelo Antonioni
В ролях: Джек Николсон, Мария Шнайдер, Дженни Ранэкр, Стивен Беркофф, Амброз Биа, Иан Хендри, Жан Баптист Тьемель, Манфред Спайс, Джеймс Кэмпбелл, Хосе Мария Каффарель
Описание: Журналист с философской фамилией Дэвид Локк приезжает делать материал в Северную Сахару, но работа не клеится. Очередной тягостно-жаркий день приносит неприятный сюрприз: умирает сосед, живущий в номере напротив. Повинуясь внезапному порыву, Локк забирает багаж покойного, переклеивает фотографию в паспорте и спешно покидает отель в смутном предчувствии новой жизни.
Доп. информация: Видео дорожка от Kоenig (спасибо!), исходный файл The.Passenger.1975.1080p.BluRay.X264-AMIABLE.
За аудио дорожку благодарю m.mamichev и Mixa_12345_mixa, впервые на трекере.
Сэмпл: http://yadi.sk/i/eMD0ufsz7jm9qA
Качество видео: HDRip
Формат файла: AVI
Видео: XviD, 720x384 (1.85:1), 23.976 fps, ~1447 kbps
Аудио: AC3, 48 kHz, 2.0 ch, 192 kbps - Сергей Визгунов

MediaInfo

ОбщееПолное имя : D:\Torrents\Passenger [1975 HDRip].aviФормат файла : AVIФормат файла/Информация : Audio Video InterleaveРазмер файла : 1,45 ГбайтПродолжительность : 2 ч. 5 м.Общий поток : 1648 Кбит/секПрограмма кодирования : VirtualDubMod 1.5.10.2 (build 2540/release)Библиотека кодирования : VirtualDubMod build 2540/release
ВидеоИдентификатор : 0Формат файла : MPEG-4 VisualПрофиль формата : Advanced Simple@L5Настройки формата : BVOP1 / Custom MatrixПараметр BVOP формата : 1Параметр QPel формата : НетПараметр GMC формата : Без точки переходаПараметр матрицы формата : ВыборочнаяИдентификатор кодека : XVIDИдентификатор кодека/Подсказка : XviDПродолжительность : 2 ч. 5 м.Битрейт : 1447 Кбит/секШирина : 720 пикселейВысота : 384 пикселяСоотношение сторон : 1,85:1Частота кадров : 23,976 (24000/1001) кадра/секЦветовое пространство : YUVСубдискретизация насыщенности : 4:2:0Битовая глубина : 8 битТип развёртки : ПрогрессивнаяМетод сжатия : С потерямиБит/(Пиксели*Кадры) : 0.218Размер потока : 1,27 Гбайт (88%)Библиотека кодирования : XviD 65
АудиоИдентификатор : 1Формат файла : AC-3Формат файла/Информация : Audio Coding 3Коммерческое название : Dolby DigitalИдентификатор кодека : 2000Продолжительность : 2 ч. 5 м.Вид битрейта : ПостоянныйБитрейт : 192 Кбит/секКаналы : 2 каналаChannel layout : L RЧастота : 48,0 КГцЧастота кадров : 31,250 кадров/сек (1536 SPF)Битовая глубина : 16 битМетод сжатия : С потерямиРазмер потока : 173 Мбайт (12%)Выравнивание : Разделение по промежуткамПродолжительность промежутка : 42 мс. (1,00 видеокадр)Время предзагрузки промежутка : 500 мс.ServiceKind/String : Complete Main

Скриншот c названием фильма

Скриншоты



[galltoto.com]_t_5666937.torrent
Торрент: Зарегистрирован ·  [ 2019-01-02 22:29 ] ·  88a70d89caedde80b6c64b667e0e8eaa789990bd

15 KB

Статус: проверено
Скачан: 0 раз
Размер: 1.45 GB
Оценка: 
(Голосов: 0)
Сказали спасибо: 0  Спасибо
Похожие темы
[Профиль]    [ЛС]
Показать сообщения:    
Ответить на тему

Текущее время: Сегодня 03:46

Часовой пояс: GMT + 7



Вы не можете начинать темы
Вы не можете отвечать на сообщения
Вы не можете редактировать свои сообщения
Вы не можете удалять свои сообщения
Вы не можете голосовать в опросах
Вы не можете прикреплять файлы к сообщениям
Вы можете скачивать файлы


US America $100 One Hundred Dollars Banknote 24k Pure Gold /w Sleeve | Denise Dal Vera | Paper doll ornaments, Christmas, Valentine’s Day, Easter gift tags, item# 20