Пекинский велосипед / Shiqi sui de dan che / Beijing Bicycle (Ван Сяошуай / Xiaoshuai Wang) [2001, Китай, Франция, Тайвань, драма, DVDRip-AVC] DVO + Sub Fra + Original Zho

Ответить на тему
Статистика раздачи [Обновить пиров]
Размер:  2.18 GB   |    Зарегистрирован:  16 дней   |    Скачан:  0 раз

Полного источника не было: Никогда

 
   
 
 
 
Автор Сообщение

galltoto.com

Создавать темы 02-Янв-2019 22:29

[Цитировать]

Пекинский велосипед / Shiqi sui de dan che / Beijing Bicycle
Страна: Китай, Франция, Тайвань
Жанр: драма
Год выхода: 2001
Продолжительность: 01:48:36
Перевод: Профессиональный (двухголосый закадровый)
Русские субтитры: нет
Субтитры: французские
Оригинальная аудиодорожка: китайский
Режиссер: Ван Сяошуай / Xiaoshuai Wang
В ролях: Цуй Линь (Гуо), Ли Бинь (Чжан), Чжу Сюнь (Кин), Гао Юаньюань (Сяо), Ли Шуанг (Да Хуан), Чжао Ивей (отец), Панг Ян (мать), Се Чжан (управляющий), Ма Юхонь (бухгалтер)
Описание: Шестнадцатилетнему деревенскому парню крупно повезло. Приехав в Пекин, он нашел отличную работу в курьерской компании, выдавшей ему великолепный горный велосипед, который необходимо было выкупить. В тот момент, когда Гуе почти закончил выплаты, велосипед исчез. После долгих поисков пропажа нашлась, но у велосипеда был уже новый хозяин. Гуе приходит к решению выкрасть свое сокровище.
Доп. информация: Рип с этого DVD-9. Фильм сам по себе очень знаковый для китайского кинематографа, не зря получивший серебряного медведя берлинского кинофестивали и номинированный на золотого. Очень рекомендую .
Сэмпл: http://sendfile.su/1464964
Качество видео: DVDRip-AVC
Формат файла: MKV
Видео: H264, 718x548@1020x548 (1.86:1), 25fps, ~2291 kb/s, 0.23 b/pf
Аудио: AC3, 48Khz, 192Kbps, 2ch, Russian
Аудио 2: AC3, 48Khz, 384Kbps, 2ch, Chinese
Формат файла субтитров: prerendered (IDX+SUB)
Доп. информация о субтитрах: French

MediaInfo

Format : MatroskaFormat version : Version 4File size : 2.18 GiBDuration : 1 h 48 minOverall bit rate : 2 870 kb/sEncoded date : UTC 2018-12-31 05:06:31Writing application : mkvmerge v28.2.0 ('The Awakening') 64-bitWriting library : libebml v1.3.6 + libmatroska v1.4.9
VideoID : 1Format : AVCFormat/Info : Advanced Video CodecFormat profile : High@L4.1Format settings : CABAC / 8 Ref FramesFormat settings, CABAC : YesFormat settings, ReFrames : 8 framesCodec ID : V_MPEG4/ISO/AVCDuration : 1 h 48 minBit rate : 2 291 kb/sWidth : 718 pixelsHeight : 548 pixelsDisplay aspect ratio : 1.85:1Original display aspect ratio : 4:3Frame rate mode : ConstantFrame rate : 25.000 FPSColor space : YUVChroma subsampling : 4:2:0Bit depth : 8 bitsScan type : ProgressiveBits/(Pixel*Frame) : 0.233Stream size : 1.74 GiB (80%)Writing library : x264 core 157 r2935 545de2fEncoding settings : cabac=1 / ref=8 / deblock=1:0:0 / analyse=0x3:0x133 / me=umh / subme=9 / psy=1 / psy_rd=1.00:0.00 / mixed_ref=1 / me_range=24 / chroma_me=1 / trellis=2 / 8x8dct=1 / cqm=0 / deadzone=21,11 / fast_pskip=1 / chroma_qp_offset=-2 / threads=12 / lookahead_threads=2 / sliced_threads=0 / nr=0 / decimate=1 / interlaced=0 / bluray_compat=0 / constrained_intra=0 / bframes=8 / b_pyramid=2 / b_adapt=2 / b_bias=0 / direct=3 / weightb=1 / open_gop=0 / weightp=2 / keyint=250 / keyint_min=25 / scenecut=40 / intra_refresh=0 / rc_lookahead=60 / rc=2pass / mbtree=1 / bitrate=2291 / ratetol=1.0 / qcomp=0.60 / qpmin=0 / qpmax=69 / qpstep=4 / cplxblur=20.0 / qblur=0.5 / vbv_maxrate=62500 / vbv_bufsize=78125 / nal_hrd=none / filler=0 / ip_ratio=1.40 / aq=1:1.00Default : YesForced : No
Audio #1ID : 2Format : AC-3Format/Info : Audio Coding 3Commercial name : Dolby DigitalCodec ID : A_AC3Duration : 1 h 48 minBit rate mode : ConstantBit rate : 192 kb/sChannel(s) : 2 channelsChannel layout : L RSampling rate : 48.0 kHzFrame rate : 31.250 FPS (1536 SPF)Bit depth : 16 bitsCompression mode : LossyStream size : 149 MiB (7%)Language : RussianService kind : Complete MainDefault : YesForced : No
Audio #2ID : 3Format : AC-3Format/Info : Audio Coding 3Commercial name : Dolby DigitalCodec ID : A_AC3Duration : 1 h 48 minBit rate mode : ConstantBit rate : 384 kb/sChannel(s) : 2 channelsChannel layout : L RSampling rate : 48.0 kHzFrame rate : 31.250 FPS (1536 SPF)Bit depth : 16 bitsCompression mode : LossyStream size : 298 MiB (13%)Language : ChineseService kind : Complete MainDefault : NoForced : No
TextID : 4Format : VobSubCodec ID : S_VOBSUBCodec ID/Info : Picture based subtitle format used on DVDsDuration : 1 h 48 minBit rate : 2 068 b/sCount of elements : 654Stream size : 1.60 MiB (0%)Language : FrenchDefault : NoForced : No

x264 logs

---[Information] [31.12.2018 13:07:39] y4m [info]: 718x548p 1:1 @ 25/1 fps (cfr)---[Information] [31.12.2018 13:07:39] x264 [info]: using SAR=1/1---[Information] [31.12.2018 13:07:39] x264 [info]: using cpu capabilities: MMX2 SSE2Fast SSSE3 SSE4.2 AVX FMA3 BMI2 AVX2---[Information] [31.12.2018 13:07:39] x264 [info]: profile High, level 4.1, 4:2:0, 8-bit---[Information] [31.12.2018 14:19:41] x264 [info]: frame I:837 Avg QP:15.92 size: 68375---[Information] [31.12.2018 14:19:41] x264 [info]: frame P:33670 Avg QP:19.03 size: 27545---[Information] [31.12.2018 14:19:41] x264 [info]: frame B:128381 Avg QP:21.97 size: 6860---[Information] [31.12.2018 14:19:41] x264 [info]: consecutive B-frames: 1.7% 2.8% 8.6% 9.8% 6.5% 63.3% 3.2% 2.0% 2.1%---[Information] [31.12.2018 14:19:41] x264 [info]: mb I I16..4: 2.6% 84.8% 12.6%---[Information] [31.12.2018 14:19:41] x264 [info]: mb P I16..4: 0.9% 12.4% 1.8% P16..4: 39.5% 24.5% 16.6% 0.5% 0.1% skip: 3.7%---[Information] [31.12.2018 14:19:41] x264 [info]: mb B I16..4: 0.1% 1.2% 0.2% B16..8: 43.4% 11.1% 2.8% direct: 7.4% skip:33.9% L0:38.0% L1:40.4% BI:21.5%---[Information] [31.12.2018 14:19:41] x264 [info]: 8x8 transform intra:81.9% inter:66.8%---[Information] [31.12.2018 14:19:41] x264 [info]: direct mvs spatial:98.8% temporal:1.2%---[Information] [31.12.2018 14:19:41] x264 [info]: coded y,uvDC,uvAC intra: 88.3% 80.3% 38.4% inter: 33.9% 25.8% 2.2%---[Information] [31.12.2018 14:19:41] x264 [info]: i16 v,h,dc,p: 39% 15% 7% 39%---[Information] [31.12.2018 14:19:41] x264 [info]: i8 v,h,dc,ddl,ddr,vr,hd,vl,hu: 20% 9% 7% 8% 11% 14% 9% 13% 10%---[Information] [31.12.2018 14:19:41] x264 [info]: i4 v,h,dc,ddl,ddr,vr,hd,vl,hu: 34% 6% 4% 6% 10% 14% 8% 10% 7%---[Information] [31.12.2018 14:19:41] x264 [info]: i8c dc,h,v,p: 32% 23% 29% 17%---[Information] [31.12.2018 14:19:41] x264 [info]: Weighted P-Frames: Y:7.8% UV:1.2%---[Information] [31.12.2018 14:19:41] x264 [info]: ref P L0: 38.2% 13.3% 19.7% 6.8% 7.6% 4.7% 6.1% 3.3% 0.3% 0.0%---[Information] [31.12.2018 14:19:41] x264 [info]: ref B L0: 73.4% 13.2% 5.5% 3.3% 2.5% 1.5% 0.5%---[Information] [31.12.2018 14:19:41] x264 [info]: ref B L1: 95.1% 4.9%---[Information] [31.12.2018 14:19:41] x264 [info]: kb/s:2290.33---[Information] [31.12.2018 14:19:41] encoded 162888 frames, 37.68 fps, 2290.33 kb/s

Скриншот c названием фильма

Скриншоты



[galltoto.com]_t_5667408.torrent
Торрент: Зарегистрирован ·  [ 2019-01-02 22:29 ] ·  7789e24d21b4b28fe12982172fa1adc074fda7e8

11 KB

Статус: проверено
Скачан: 0 раз
Размер: 2.18 GB
Оценка: 
(Голосов: 0)
Сказали спасибо: 0  Спасибо
Похожие темы
[Профиль]    [ЛС]
Показать сообщения:    
Ответить на тему

Текущее время: Сегодня 03:25

Часовой пояс: GMT + 7



Вы не можете начинать темы
Вы не можете отвечать на сообщения
Вы не можете редактировать свои сообщения
Вы не можете удалять свои сообщения
Вы не можете голосовать в опросах
Вы не можете прикреплять файлы к сообщениям
Вы можете скачивать файлы


Rose Quartz/Rose Gold/Blush Pink Double Sided Satin Ribbon 3,6,10,15,25,38,50MM | Series torrent | Plus d´enchères