Д\'Агостино / D\'Agostino (Хорхе Амир / Jorge Ameer) [2012, США, Греция, триллер, фантастика, DVDRip] VO (Олег Воротилин) + Sub Rus + Original Eng

Ответить на тему
Статистика раздачи [Обновить пиров]
Размер:  1.5 GB   |    Зарегистрирован:  16 дней   |    Скачан:  0 раз

Полного источника не было: Никогда

 
   
 
 
 
Автор Сообщение

galltoto.com

Создавать темы 02-Янв-2019 22:29

[Цитировать]

Д'Агостино / D'Agostino
Страна: США, Греция
Жанр: триллер, фантастика
Год выхода: 2012
Продолжительность: 02:04:33
Перевод: Одноголосый закадровый Олег Воротилин по субтитрам А. Кедров
Субтитры: русские
Оригинальная аудиодорожка: английский
Режиссер: Хорхе Амир / Jorge Ameer
В ролях: Кит Ронке, Тори Тайсон, Майкл Эйнджелс, Хорхе Амир
Описание: Успешному лондонскому управленцу Алану Доусону в наследство от бабушки достаётся недвижимость на греческом острове Санторини. Алану наскучили отношения со своей невестой Сильвией, и он с воодушевлением использует необходимость поездки на юг как возможность сбежать от надоевшего быта и рабочей рутины.
По прибытии он обнаруживает в своей новой квартире человеческого клона, выращенного в Италии на органы для пересадки, и оказавшегося на побережье Санторини после шторма. Д'Агостино, кажется, придаёт жизни Алана новый смысл. Сомнительные, но волнующие перспективы использования своей новой находки становятся для Алана возможностью слишком привлекательной, чтобы от неё отказаться. И они оба оказываются втянуты в запутанную игру с непредсказуемым финалом, в которой уже не ясно, кто хозяин, а кто - раб...
Сэмпл: http://yadi.sk/i/-7JbIr94mK9cvQ
Качество видео: DVDRip
Формат файла: AVI
Видео: Xvid 720x304 23.976 fps 1292 Kbps 0.246 bits/pixel
Аудио 1: AC-3 48000Hz 2 канала (Front: L R) 192 Kbps русский
Аудио 2: AC-3 48000Hz 2 канала (Front: L R) 224 Kbps английский
Формат файла субтитров: softsub (SRT)

MediaInfo

ОбщееПолное имя : E:\Видео\ы\DAGOSTINO\DAGOSTINO.aviФормат файла : AVIФормат файла/Информация : Audio Video InterleaveРазмер файла : 1,50 ГбайтПродолжительность : 2 ч. 4 м.Общий поток : 1723 Кбит/секПрограмма кодирования : VirtualDubMod 1.5.10.2 (build 2542/release)Библиотека кодирования : VirtualDubMod build 2542/release
ВидеоИдентификатор : 0Формат файла : MPEG-4 VisualПрофиль формата : Advanced Simple@L5Параметр BVOP формата : 2Параметр QPel формата : НетПараметр GMC формата : Без точки переходаПараметр матрицы формата : Default (MPEG)Идентификатор кодека : XVIDИдентификатор кодека/Подсказка : XviDПродолжительность : 2 ч. 4 м.Битрейт : 1292 Кбит/секШирина : 720 пикселейВысота : 304 пикселяСоотношение сторон : 2,35:1Частота кадров : 23,976 (23976/1000) кадра/секЦветовое пространство : YUVСубдискретизация насыщенности : 4:2:0Битовая глубина : 8 битТип развёртки : ПрогрессивнаяМетод сжатия : С потерямиБит/(Пиксели*Кадры) : 0.246Размер потока : 1,12 Гбайт (75%)Библиотека кодирования : XviD 64
Аудио #1Идентификатор : 1Формат файла : AC-3Формат файла/Информация : Audio Coding 3Расширение режима : CM (complete main)Параметр Endianness формата : BigИдентификатор кодека : 2000Продолжительность : 2 ч. 4 м.Вид битрейта : ПостоянныйБитрейт : 192 Кбит/секКаналы : 2 каналаРасположение каналов : Front: L RЧастота : 48,0 КГцЧастота кадров : 31,250 кадров/сек (1536 spf)Битовая глубина : 16 битМетод сжатия : С потерямиРазмер потока : 171 Мбайт (11%)Выравнивание : Разделение по промежуткамПродолжительность промежутка : 42 мс. (1,00 видеокадр)Время предзагрузки промежутка : 500 мс.
Аудио #2Идентификатор : 2Формат файла : AC-3Формат файла/Информация : Audio Coding 3Расширение режима : CM (complete main)Параметр Endianness формата : BigИдентификатор кодека : 2000Продолжительность : 2 ч. 4 м.Вид битрейта : ПостоянныйБитрейт : 224 Кбит/секКаналы : 2 каналаРасположение каналов : Front: L RЧастота : 48,0 КГцЧастота кадров : 31,250 кадров/сек (1536 spf)Битовая глубина : 16 битМетод сжатия : С потерямиРазмер потока : 200 Мбайт (13%)Выравнивание : Разделение по промежуткамПродолжительность промежутка : 42 мс. (1,00 видеокадр)Время предзагрузки промежутка : 500 мс.

Скриншот c названием фильма

Скриншоты




Источник: Torrentc


[galltoto.com]_t_5667460.torrent
Торрент: Зарегистрирован ·  [ 2019-01-02 22:29 ] ·  eb602df5873a9efa1e792468edc62a6774e32b26

16 KB

Статус: проверено
Скачан: 0 раз
Размер: 1.5 GB
Оценка: 
(Голосов: 0)
Сказали спасибо: 0  Спасибо
Похожие темы
[Профиль]    [ЛС]
Показать сообщения:    
Ответить на тему

Текущее время: Сегодня 03:24

Часовой пояс: GMT + 7



Вы не можете начинать темы
Вы не можете отвечать на сообщения
Вы не можете редактировать свои сообщения
Вы не можете удалять свои сообщения
Вы не можете голосовать в опросах
Вы не можете прикреплять файлы к сообщениям
Вы можете скачивать файлы


British Blues | Sahil Saluja | Knowing Brother Episode 119