Таинственный монах / Priest & Empress / Yoso (Тэйноскэ Кинугаса / Teinosuke Kinugasa) [1963, Япония, драма, DVDRip] VO (Олег Воротилин) + Sub Rus + Original Jpn

Ответить на тему
Статистика раздачи [Обновить пиров]
Размер:  1.09 GB   |    Зарегистрирован:  16 дней   |    Скачан:  0 раз

Полного источника не было: Никогда

 
   
 
 
 
Автор Сообщение

galltoto.com

Создавать темы 02-Янв-2019 22:29

[Цитировать]

Таинственный монах / Priest & Empress / Yoso
Страна: Япония
Жанр: драма
Год выхода: 1963
Продолжительность: 01:37:42
Перевод: Одноголосый закадровый Олег Воротилин по субтитрам дед_сто_лет©
Субтитры: русские
Оригинальная аудиодорожка: японский
Режиссер: Тэйноскэ Кинугаса / Teinosuke Kinugasa
В ролях: Райдзо ИТИКАВА, Юкико ФУДЗИ, Томисабуро ВАКАЯМА, Хикосабуро КАТАОКА, Эйтаро ОДЗАВА, Масаё БАНРИ, Миэко КОНДО, Кацухико КОБАЯСИ, Дзюнъитиро НАРИТА, Матасабуро НИВА, Рюдзо СИМАДА, Ёсио ИНАБА, Тацуя ИСИГУРО, Фудзио ХАРУМОТО, Тацуо ХАНАБУ, Осаму МАРУЯМА, Ёсиндо ЯМАДЗИ, Синобу АРАКИ, Сидзуо ТЮДЗЁ, Юдзи ХАМАДА, Синтаро НАНДЗЁ, Сёсаку СУГИЯМА, Сёдзо НАМБУ, Тэруко ОУМИ, Кимико ТАТИБАНА, Мидори КОМАЦУ, Кинъя ИТИКАВА, Кадзуэ ТАМАКИ, Сэйсиро ХАРА, Токио ОКИ, Киёси КАСУГА
Описание: По книге Фудзи ЯХИРО (1904 - 1986), который в основном прославился как сценарист. Его прототип - это реальный человек периода Нара, монах Докё (700 - 772), который стал фаворитом императрицы Сётоку, их союз продолжался 18 лет, и в это время он был фактическим правителем Японии. Реальный Докё был на 13 лет старше Императрицы, но пережил её на 2 года. Эту историю часто сравнивают с судьбой русского Распутина. Однако в фильме представлена иная художественная версия этих событий.©
Сэмпл: http://yadi.sk/i/U_bM_Vsis-i0xg
Качество видео: DVDRip
Формат файла: AVI
Видео: 720x304 (2.35:1), 23.976 fps, XviD build 50 1205 kbps avg, 0.23 bit/pixel
Аудио 1: 48 kHz, AC-3, 2 ch (Front: L R), 192.00 kbps avg русский
Аудио 2: 48 kHz, MPEG Layer 3, 2 ch (Front: L R), 192.00 kbps avg японский
Формат файла субтитров: softsub (SRT)

MediaInfo

ОбщееПолное имя : E:\Видео\ы\Таинственный монах\Yoso(1963)Teinosuke.Kinugasa.aviФормат файла : AVIФормат файла/Информация : Audio Video InterleaveРазмер файла : 1,09 ГбайтПродолжительность : 1 ч. 37 м.Общий поток : 1603 Кбит/секПрограмма кодирования : VirtualDubMod 1.5.10.2 (build 2542/release)Библиотека кодирования : VirtualDubMod build 2542/release
ВидеоИдентификатор : 0Формат файла : MPEG-4 VisualПрофиль формата : Advanced Simple@L5Параметр BVOP формата : НетПараметр QPel формата : НетПараметр GMC формата : Без точки переходаПараметр матрицы формата : ВыборочнаяИдентификатор кодека : XVIDИдентификатор кодека/Подсказка : XviDПродолжительность : 1 ч. 37 м.Битрейт : 1205 Кбит/секШирина : 720 пикселейВысота : 304 пикселяСоотношение сторон : 2,35:1Частота кадров : 23,976 (24000/1001) кадра/секЦветовое пространство : YUVСубдискретизация насыщенности : 4:2:0Битовая глубина : 8 битТип развёртки : ПрогрессивнаяМетод сжатия : С потерямиБит/(Пиксели*Кадры) : 0.230Размер потока : 842 Мбайт (75%)Библиотека кодирования : XviD 1.2.1 (UTC 2008-12-04)
Аудио #1Идентификатор : 1Формат файла : AC-3Формат файла/Информация : Audio Coding 3Расширение режима : CM (complete main)Параметр Endianness формата : BigИдентификатор кодека : 2000Продолжительность : 1 ч. 37 м.Вид битрейта : ПостоянныйБитрейт : 192 Кбит/секКаналы : 2 каналаРасположение каналов : Front: L RЧастота : 48,0 КГцЧастота кадров : 31,250 кадров/сек (1536 spf)Битовая глубина : 16 битМетод сжатия : С потерямиРазмер потока : 134 Мбайт (12%)Выравнивание : Разделение по промежуткамПродолжительность промежутка : 42 мс. (1,00 видеокадр)Время предзагрузки промежутка : 500 мс.
Аудио #2Идентификатор : 2Формат файла : MPEG AudioВерсия формата : Version 1Профиль формата : Layer 3Режим : Joint stereoРасширение режима : MS StereoИдентификатор кодека : 55Идентификатор кодека/Подсказка : MP3Продолжительность : 1 ч. 37 м.Вид битрейта : ПостоянныйБитрейт : 192 Кбит/секКаналы : 2 каналаЧастота : 48,0 КГцМетод сжатия : С потерямиРазмер потока : 134 Мбайт (12%)Выравнивание : Разделение по промежуткамПродолжительность промежутка : 42 мс. (1,00 видеокадр)Время предзагрузки промежутка : 500 мс.Библиотека кодирования : LAME3.98rНастройки программы : -m j -V 4 -q 2 -lowpass 18.6 -b 192

Скриншот c названием фильма

Скриншоты




Источник: Torrentc


[galltoto.com]_t_5667469.torrent
Торрент: Зарегистрирован ·  [ 2019-01-02 22:29 ] ·  48c0efd91ffd51b6d2d6b9127d61685186084783

12 KB

Статус: проверено
Скачан: 0 раз
Размер: 1.09 GB
Оценка: 
(Голосов: 0)
Сказали спасибо: 0  Спасибо
Похожие темы
[Профиль]    [ЛС]
Показать сообщения:    
Ответить на тему

Текущее время: Сегодня 03:24

Часовой пояс: GMT + 7



Вы не можете начинать темы
Вы не можете отвечать на сообщения
Вы не можете редактировать свои сообщения
Вы не можете удалять свои сообщения
Вы не можете голосовать в опросах
Вы не можете прикреплять файлы к сообщениям
Вы можете скачивать файлы


Baixar toque para celular | ATENCIÓN: Cuidado con estos posts | TERRANOVA NUTRITION