Токийский скиталец / Tokyo Drifter / Tôkyô nagaremono (Сэйдзюн Судзуки / Seijun Suzuki) [1966, Япония, боевик, драма, криминал, BDRip] VO (Воротилин) + VO (Сергей SOLO) + Sub Rus, Eng + Original Jpn

Ответить на тему
Статистика раздачи [Обновить пиров]
Размер:  1.46 GB   |    Зарегистрирован:  16 дней   |    Скачан:  0 раз

Полного источника не было: Никогда

 
   
 
 
 
Автор Сообщение

galltoto.com

Создавать темы 02-Янв-2019 22:29

[Цитировать]

Токийский скиталец / Tokyo Drifter / Tôkyô nagaremono
Страна: Япония
Жанр: боевик, драма, криминал
Год выхода: 1966
Продолжительность: 01:22:52
Перевод: Одноголосый закадровый - Олег Воротилин
Перевод: Одноголосый закадровый - Сергей SOLO
Субтитры: русские (wasp238), английские
Оригинальная аудиодорожка: японский

Режиссер: Сэйдзюн Судзуки / Seijun Suzuki
В ролях: Тэцуя Ватари, Тиэко Мацубара, Тамио Кавати, Хидэаки Нитани, Эйдзи Го, Тотико Хамакава, Цуёси Ёсида, Исао Тамагава, Эимэи Эсуми, Рюдзи Кита, Митио Хино, Сюнтаро Тамамура, Хироси Мидорикава, Хироси Тё, Акира Хисамацу, Синдзо Сибата--Спонсоры первой озвучки - dmyan, porvaliparus--Описание: В этом джазово-гангстерском фильме исправляющийся убийца «Феникс» Тэтцу, в ожидании решения внезапно возникших проблем, скитается по Японии, пока в одном из притонов он окончательно не решает возвратиться в Токио и решить проблемы, полагаясь только на себя.
Сэмпл
Качество видео: BDRip
Формат файла: AVI
Видео: 720x304 (2.37:1), 23.976 fps, XviD build 73 ~1928 kbps avg, 0.37 bit/pixel
Аудио: 48 kHz, AC3 Dolby Digital, 1/0 (C) ch, ~192 kbps - Олег Воротилин
Аудио: 48 kHz, AC3 Dolby Digital, 2/0 (L,R) ch, ~192 kbps - Сергей SOLO
Аудио: 48 kHz, AC3 Dolby Digital, 1/0 (C) ch, ~192 kbps - оригинал
Формат файла субтитров: softsub (SRT)

MediaInfo

GeneralComplete name : H:\Tokyo.Drifter.1966.bdrip_[1.46]_[teko]\Tokyo.Drifter.1966.bdrip_[1.46].aviFormat : AVIFormat/Info : Audio Video InterleaveFile size : 1.46 GiBDuration : 1h 22mnOverall bit rate : 2 525 KbpsWriting application : VirtualDubMod 1.5.10.3 | www.virtualdub-fr.org || (build 2550/release)Writing library : VirtualDubMod build 2550/release
VideoID : 0Format : MPEG-4 VisualFormat profile : Advanced Simple@L5Format settings, BVOP : 2Format settings, QPel : NoFormat settings, GMC : No warppointsFormat settings, Matrix : CustomCodec ID : XVIDCodec ID/Hint : XviDDuration : 1h 22mnBit rate : 1 930 KbpsWidth : 720 pixelsHeight : 304 pixelsDisplay aspect ratio : 2.35:1Frame rate : 23.976 (23976/1000) fpsColor space : YUVChroma subsampling : 4:2:0Bit depth : 8 bitsScan type : ProgressiveCompression mode : LossyBits/(Pixel*Frame) : 0.368Stream size : 1.12 GiB (76%)Writing library : XviD 73
Audio #1ID : 1Format : AC-3Format/Info : Audio Coding 3Mode extension : CM (complete main)Format settings, Endianness : BigCodec ID : 2000Duration : 1h 22mnBit rate mode : ConstantBit rate : 192 KbpsChannel(s) : 1 channelChannel positions : Front: CSampling rate : 48.0 KHzFrame rate : 31.250 fps (1536 spf)Compression mode : LossyStream size : 114 MiB (8%)Alignment : Split accross interleavesInterleave, duration : 42 ms (1.00 video frame)Interleave, preload duratio : 500 ms
Audio #2ID : 2Format : AC-3Format/Info : Audio Coding 3Mode extension : CM (complete main)Format settings, Endianness : BigCodec ID : 2000Duration : 1h 22mnBit rate mode : ConstantBit rate : 192 KbpsChannel(s) : 2 channelsChannel positions : Front: L RSampling rate : 48.0 KHzFrame rate : 31.250 fps (1536 spf)Compression mode : LossyStream size : 114 MiB (8%)Alignment : Split accross interleavesInterleave, duration : 42 ms (1.00 video frame)Interleave, preload duratio : 500 ms
Audio #3ID : 3Format : AC-3Format/Info : Audio Coding 3Mode extension : CM (complete main)Format settings, Endianness : BigCodec ID : 2000Duration : 1h 22mnBit rate mode : ConstantBit rate : 192 KbpsChannel(s) : 1 channelChannel positions : Front: CSampling rate : 48.0 KHzFrame rate : 31.250 fps (1536 spf)Compression mode : LossyStream size : 114 MiB (8%)Alignment : Split accross interleavesInterleave, duration : 42 ms (1.00 video frame)Interleave, preload duratio : 500 ms

Скриншоты

:--


[galltoto.com]_t_5668174.torrent
Торрент: Зарегистрирован ·  [ 2019-01-02 22:29 ] ·  c93864b9dd62ac50efccf4042a88cb20d600e772

15 KB

Статус: проверено
Скачан: 0 раз
Размер: 1.46 GB
Оценка: 
(Голосов: 0)
Сказали спасибо: 0  Спасибо
Похожие темы
[Профиль]    [ЛС]
Показать сообщения:    
Ответить на тему

Текущее время: Сегодня 03:22

Часовой пояс: GMT + 7



Вы не можете начинать темы
Вы не можете отвечать на сообщения
Вы не можете редактировать свои сообщения
Вы не можете удалять свои сообщения
Вы не можете голосовать в опросах
Вы не можете прикреплять файлы к сообщениям
Вы можете скачивать файлы


Reprisal (2018) | The World In 2050 [The Real Future Of Earth] – Full BBC Documentary 2018 | Obvious Child (2014)