Плоды страсти / Les fruits de la passion / The fruits of passion (Сюдзи Тераяма / Shuji Terayama) [1981, Франция, Япония, Драма, сюрреализм, эротика, DVDRip] VO (Олег Воротилин) + Sub Rus + Original Eng

Ответить на тему
Статистика раздачи [Обновить пиров]
Размер:  1.48 GB   |    Зарегистрирован:  1 месяц 18 дней   |    Скачан:  1 раз

Полного источника не было: 11 дней

 
   
 
 
 
Автор Сообщение

galltoto.com

Создавать темы 30-Ноя-2018 22:29

[Цитировать]

Плоды страсти / Les fruits de la passion / The fruits of passion
[img=right]http://i106.fastpic.ru/big/2018/1118/22/0691398fad...e68122.jpg[/img]
Страна: Франция, Япония
Жанр: Драма, сюрреализм, эротика
Год выхода: 1981
Продолжительность: 01:22:00
Перевод: Одноголосый закадровый Олег Воротилин по субтитрам DUNA
Субтитры: русские
Оригинальная аудиодорожка: английский (отдельным файлом в папке раздачи)
Режиссер: Сюдзи Тераяма / Shuji Terayama
В ролях: Изабель Ийе, Клаус Кински, Ариель Домбаль, Питер, Кэйко Нийтака, Саёко Ямагути, Хитоми Такахаси, Миюки Оно, Юка Камэбути, Кэнити Накамура
Описание: Гонконг 1920. Молодая британская девушка попадает в азиатский бордель. Подвергаясь сексуальному насилию, фетишизму со стороны клиентов, она обнаруживает много новых чувственных желаний в мире запретного секса.
Весьма любопытный фильм для любителей кино.
Эта совместная франко-японская продукция изначально была рискованным
опытом из-за несовместимости культурных традиций. В основу фильма положен роман
Полины Реаж (фр. Pauline Réage) "История О /Возвращение в Руасси"
Японскому культовому режиссёру Судзи Тераяма, используя первоклассный смешанный
актёрский состав, удалось создать киношедевр.
Сэмпл: http://yadi.sk/i/JSu-L7VwOB5dGQ
Качество видео: DVDRip
Формат файла: AVI
Видео: XviD, 720x448 (16:10), 2172 kbps, 23,976 fps,0.281 bit/pixel
Аудио 1: AC3 Dolby Digital, 48 000 Hz, 2/0 (L,R) ch, 192.00 kbps avg русский
Аудио 2: AC3 Dolby Digital, 48 000 Hz, 2/0 (L,R) ch, 192.00 kbps avg английский
Формат файла субтитров: softsub (SRT)

MediaInfo

ОбщееПолное имя : E:\Видео\ы\Плоды страсти\plod_str.aviФормат файла : AVIФормат файла/Информация : Audio Video InterleaveРазмер файла : 1,37 ГбайтПродолжительность : 1 ч. 22 м.Общий поток : 2373 Кбит/секБиблиотека кодирования : VirtualDub build 35491/release
ВидеоИдентификатор : 0Формат файла : MPEG-4 VisualПрофиль формата : Advanced Simple@L5Параметр BVOP формата : 1Параметр QPel формата : НетПараметр GMC формата : Без точки переходаПараметр матрицы формата : ВыборочнаяИдентификатор кодека : XVIDИдентификатор кодека/Подсказка : XviDПродолжительность : 1 ч. 22 м.Битрейт : 2172 Кбит/секШирина : 720 пикселейВысота : 448 пикселейСоотношение сторон : 16:10Частота кадров : 23,976 (24000/1001) кадра/секЦветовое пространство : YUVСубдискретизация насыщенности : 4:2:0Битовая глубина : 8 битТип развёртки : ПрогрессивнаяМетод сжатия : С потерямиБит/(Пиксели*Кадры) : 0.281Размер потока : 1,25 Гбайт (92%)Библиотека кодирования : XviD 64
АудиоИдентификатор : 1Формат файла : AC-3Формат файла/Информация : Audio Coding 3Расширение режима : CM (complete main)Параметр Endianness формата : BigИдентификатор кодека : 2000Продолжительность : 1 ч. 22 м.Вид битрейта : ПостоянныйБитрейт : 192 Кбит/секКаналы : 2 каналаРасположение каналов : Front: L RЧастота : 48,0 КГцЧастота кадров : 31,250 кадров/сек (1536 spf)Битовая глубина : 16 битМетод сжатия : С потерямиРазмер потока : 113 Мбайт (8%)Выравнивание : Соединение по промежуткамПродолжительность промежутка : 42 мс. (1,00 видеокадр)Время предзагрузки промежутка : 512 мс.

Скриншот c названием фильма

Скриншоты





Рип и субтитры с этой раздачи:


[galltoto.com]_t_5646068.torrent
Торрент: Зарегистрирован ·  [ 2018-11-30 22:28 ] ·  d6ecd8d931e5cc4ef2a3a57a62fe301159cb9016

15 KB

Статус: проверено
Скачан: 1 раз
Размер: 1.48 GB
Оценка: 
(Голосов: 0)
Сказали спасибо: 0  Спасибо
Похожие темы
[Профиль]    [ЛС]
Показать сообщения:    
Ответить на тему

Текущее время: Сегодня 03:22

Часовой пояс: GMT + 7



Вы не можете начинать темы
Вы не можете отвечать на сообщения
Вы не можете редактировать свои сообщения
Вы не можете удалять свои сообщения
Вы не можете голосовать в опросах
Вы не можете прикреплять файлы к сообщениям
Вы можете скачивать файлы


Prix les plus chers | The Rider | Yamaha SR 125 Collection 1984