Человек с Майорки / Человек с Мальорки / Mannen från Mallorca / Mannen fran Mallorca / The Man from Majorca (Бу Видерберг / Bo Widerberg) [1984, Швеция, Дания, боевик, триллер, криминал, DVDRip] MVO (студия "Омикрон")

Ответить на тему
Статистика раздачи [Обновить пиров]
Размер:  1.47 GB   |    Зарегистрирован:  1 месяц 18 дней   |    Скачан:  1 раз

Полного источника не было: 45 минут

 
   
 
 
 
Автор Сообщение

galltoto.com

Создавать темы 30-Ноя-2018 22:29

[Цитировать]

Человек с Майорки / Человек с Мальорки / Mannen från Mallorca / Mannen fran Mallorca / The Man from Majorca
Страна: Швеция, Дания
Жанр: боевик, триллер, криминал
Год выхода: 1984
Продолжительность: 01:42:14
Перевод: Профессиональный (многоголосый закадровый) студия "Омикрон"
Субтитры: нет
Режиссер: Бу Видерберг / Bo Widerberg
В ролях: Свен Воллтер, Томас Брёмссен, Хакан Сернер, Эрнст Гюнтер, Томас Хеллберг, Ингвар Хирдвалль, Нильс Йенссен, Томми Йонссон, Рико Рённбак
Описание: 13 декабря в центре Стокгольма осуществлён дерзкий налёт на почтовое отделение. Полицейские оперативники Ярнебринг и Йоханссон первыми приезжают на вызов, но грабителю, неустановленному мужчине средних лет, удаётся скрыться с 395 тысячами крон. Ярнебринг и Йоханссон подключены к расследованию, которое ведёт начальник отдела по особо важным делам комиссар Дальгрен. Следствие идёт трудно, зацепок почти нет, как вдруг свидетели ограбления, на первый взгляд совершенно не связанные друг с другом, начинают гибнуть один за другим. "Недоумки из соседнего отдела", как величает Йоханссона и Ярнебринга комиссар Дальгрен, выбиваются из сил, пытаясь изобличить преступника, но кто-то всё время спутывает им карты. Что же происходит на самом деле?...
Сэмпл: http://yadi.sk/i/DszoRxwlKFjoxw
Качество видео: DVDRip (Источник: Torrentc - DVD9)
Формат файла: AVI
Видео: XviD 73, 640x400, (16:10), 25,000 fps, 1860 Кбит/с, 8 бит, 0.29 bit/pixel
Аудио: Русский (АС3, 2 ch (Front: L R), 48,0 KHz, 192 Kbps)

MediaInfo

ОбщееПолное имя : G:\Человек с Майорки (боевик, триллер, криминал 1984 год).aviФормат файла : AVIФормат файла/Информация : Audio Video InterleaveРазмер файла : 1,47 ГбайтПродолжительность : 1 ч. 42 м.Общий поток : 2061 Кбит/секПрограмма кодирования : VirtualDubMod 1.5.10.3 | www.virtualdub-fr.org || (build 2550/release)Библиотека кодирования : VirtualDubMod build 2550/release
ВидеоИдентификатор : 0Формат файла : MPEG-4 VisualПрофиль формата : Advanced Simple@L5Параметр BVOP формата : 2Параметр QPel формата : НетПараметр GMC формата : Без точки переходаПараметр матрицы формата : ВыборочнаяИдентификатор кодека : XVIDИдентификатор кодека/Подсказка : XviDПродолжительность : 1 ч. 42 м.Битрейт : 1860 Кбит/секШирина : 640 пикселейВысота : 400 пикселейСоотношение сторон : 16:10Частота кадров : 25,000 кадров/секЦветовое пространство : YUVСубдискретизация насыщенности : 4:2:0Битовая глубина : 8 битТип развёртки : ПрогрессивнаяМетод сжатия : С потерямиБит/(Пиксели*Кадры) : 0.291Размер потока : 1,33 Гбайт (90%)Библиотека кодирования : XviD 73
АудиоИдентификатор : 1Формат файла : AC-3Формат файла/Информация : Audio Coding 3Расширение режима : CM (complete main)Параметр Endianness формата : BigИдентификатор кодека : 2000Продолжительность : 1 ч. 42 м.Вид битрейта : ПостоянныйБитрейт : 192 Кбит/секКаналы : 2 каналаРасположение каналов : Front: L RЧастота : 48,0 КГцЧастота кадров : 31,250 кадров/сек (1536 spf)Метод сжатия : С потерямиРазмер потока : 140 Мбайт (9%)Выравнивание : Разделение по промежуткамПродолжительность промежутка : 40 мс. (1,00 видеокадр)Время предзагрузки промежутка : 500 мс.

Скриншоты



[galltoto.com]_t_5646133.torrent
Торрент: Зарегистрирован ·  [ 2018-11-30 22:28 ] ·  e91706aba0ffc9b91a8c8892c8fa55e0ec40d24b

15 KB

Статус: проверено
Скачан: 1 раз
Размер: 1.47 GB
Оценка: 
(Голосов: 0)
Сказали спасибо: 0  Спасибо
Похожие темы
[Профиль]    [ЛС]
Показать сообщения:    
Ответить на тему

Текущее время: Сегодня 03:14

Часовой пояс: GMT + 7



Вы не можете начинать темы
Вы не можете отвечать на сообщения
Вы не можете редактировать свои сообщения
Вы не можете удалять свои сообщения
Вы не можете голосовать в опросах
Вы не можете прикреплять файлы к сообщениям
Вы можете скачивать файлы


CATENE DA NEVE OMOLOGATE per auto 9mm PNEUMATICI 195/55 R16 GRUPPO 80 BRAKELESS | Universal Camera Camcorder Adjustable Tripod Stand Support for Canon Sony Fuji | Dexter Fletcher