Воробьи / Þrestir / Threstir / Sparrows (Рунар Рунарссон / Rúnar Rúnarsson) [2015, Исландия, Дания, Хорватия, драма, триллер, DVDRip] AVO (Антон Алексеев)

Ответить на тему
Статистика раздачи [Обновить пиров]
Размер:  1.46 GB   |    Зарегистрирован:  1 месяц 18 дней   |    Скачан:  0 раз

Полного источника не было: Никогда

 
   
 
 
 
Автор Сообщение

galltoto.com

Создавать темы 30-Ноя-2018 22:29

[Цитировать]

Воробьи / Þrestir / Threstir / Sparrows
Страна: Исландия, Дания, Хорватия
Жанр: драма, триллер
Год выхода: 2015
Продолжительность: 01:35:26
Перевод: Авторский (одноголосый закадровый) Антон Алексеев
Субтитры: нет
Режиссер: Рунар Рунарссон / Rúnar Rúnarsson
В ролях: Раде Шербеджия, Ингвар Сигюрдссон, Атли Фьяларссон, Магнус Дэнкс, Яркко Лахти, Эва Сигурдардоттир, Палми Гестссон, Кристбьорг Кьелд
Описание: 16-летний Ари живет с матерью в Рейкъявике. Ари доволен своей жизнью, но однажды его матери приходится выехать на работу за границу. Парню приходится покинуть столицу и переехать к отцу, в отдаленный район Западных Фьордов, где он бывал ребенком. Отношения с отцом у Ари не лучшие, а друзья детства давно разъехались. Может, что-то изменит появление симпатичной девушки? Ари должен найти себя в этих непростых условиях.

Сэмпл: http://multi-up.com/1215276
Качество видео: DVDRip (Источник: Torrentc - DVD9)
Формат файла: AVI
Видео: XviD 73, 688x384, (16:9), 25,000 fps, 1738 Кбит/с, 8 бит, 0.26 bit/pixel
Аудио: Русский (АС3, 6 ch (Front: L C R, Side: L R, LFE), 48,0 KHz, 448 Kbps)

MediaInfo

ОбщееПолное имя : G:\Воробьи (драма, триллер 2015 год).aviФормат файла : AVIФормат файла/Информация : Audio Video InterleaveРазмер файла : 1,46 ГбайтПродолжительность : 1 ч. 35 м.Общий поток : 2195 Кбит/секПрограмма кодирования : VirtualDubMod 1.5.10.3 | www.virtualdub-fr.org || (build 2550/release)Библиотека кодирования : VirtualDubMod build 2550/release
ВидеоИдентификатор : 0Формат файла : MPEG-4 VisualПрофиль формата : Advanced Simple@L5Параметр BVOP формата : 2Параметр QPel формата : НетПараметр GMC формата : Без точки переходаПараметр матрицы формата : ВыборочнаяИдентификатор кодека : XVIDИдентификатор кодека/Подсказка : XviDПродолжительность : 1 ч. 35 м.Битрейт : 1738 Кбит/секШирина : 688 пикселейВысота : 384 пикселяСоотношение сторон : 16:9Частота кадров : 25,000 кадров/секЦветовое пространство : YUVСубдискретизация насыщенности : 4:2:0Битовая глубина : 8 битТип развёртки : ПрогрессивнаяМетод сжатия : С потерямиБит/(Пиксели*Кадры) : 0.263Размер потока : 1,16 Гбайт (79%)Библиотека кодирования : XviD 73
АудиоИдентификатор : 1Формат файла : AC-3Формат файла/Информация : Audio Coding 3Расширение режима : CM (complete main)Параметр Endianness формата : BigИдентификатор кодека : 2000Продолжительность : 1 ч. 35 м.Вид битрейта : ПостоянныйБитрейт : 448 Кбит/секКаналы : 6 каналовРасположение каналов : Front: L C R, Side: L R, LFEЧастота : 48,0 КГцЧастота кадров : 31,250 кадров/сек (1536 spf)Метод сжатия : С потерямиРазмер потока : 305 Мбайт (20%)Выравнивание : Разделение по промежуткамПродолжительность промежутка : 40 мс. (1,00 видеокадр)Время предзагрузки промежутка : 500 мс.

Скриншоты



[galltoto.com]_t_5646619.torrent
Торрент: Зарегистрирован ·  [ 2018-11-30 22:28 ] ·  1ece0a8567d454e2c974c82dec5dd585195b8391

15 KB

Статус: проверено
Скачан: 0 раз
Размер: 1.46 GB
Оценка: 
(Голосов: 0)
Сказали спасибо: 0  Спасибо
Похожие темы
[Профиль]    [ЛС]
Показать сообщения:    
Ответить на тему

Текущее время: Сегодня 03:14

Часовой пояс: GMT + 7



Вы не можете начинать темы
Вы не можете отвечать на сообщения
Вы не можете редактировать свои сообщения
Вы не можете удалять свои сообщения
Вы не можете голосовать в опросах
Вы не можете прикреплять файлы к сообщениям
Вы можете скачивать файлы


Biografía | Cartelera | 63 komentarze