(Darkwave, Industrial, Electronic) [CD] Collide - Color Of Nothing - 2017, FLAC (tracks+.cue), lossless

Ответить на тему
Статистика раздачи [Обновить пиров]
Размер:  428 MB   |    Зарегистрирован:  2 месяца 18 дней   |    Скачан:  0 раз

Полного источника не было: Никогда

 
   
 
 
 
Автор Сообщение

galltoto.com

Создавать темы 31-Окт-2018 00:02

[Цитировать]

Collide / Color Of Nothing
Жанр: Darkwave, Industrial, Electronic
Носитель: CD
Страна-производитель диска (релиза): USA
Год издания: 2017
Издатель (лейбл): Noiseplus Music
Номер по каталогу: NOISE 016
Страна исполнителя (группы): USA
Аудиокодек: FLAC (*.flac)
Тип рипа: tracks+.cue
Битрейт аудио: lossless
Продолжительность: 62:38
Источник (релизер): Сеть
Наличие сканов в содержимом раздачи: нет
Треклист:
1. Wake Up
2. Soul Crush
3. Freaks Me Out
4. Will Not Be Destroyed
5. Side To Side
6. Intruder
7. Fix
8. Blurring The Edges
9. Only Human
10. Say What You Mean
11. Pale Blue

Лог создания рипа

Exact Audio Copy V1.3 from 2. September 2016
EAC extraction logfile from 25. September 2017, 1:53
Collide / Color Of Nothing
Used drive : HL-DT-STDVDRAM GUE1N Adapter: 1 ID: 0
Read mode : SecureUtilize accurate stream : YesDefeat audio cache : YesMake use of C2 pointers : No
Read offset correction : 6Overread into Lead-In and Lead-Out : NoFill up missing offset samples with silence : YesDelete leading and trailing silent blocks : NoNull samples used in CRC calculations : YesUsed interface : Native Win32 interface for Win NT & 2000Gap handling : Appended to previous track
Used output format : User Defined EncoderSelected bitrate : 1024 kBit/sQuality : HighAdd ID3 tag : NoCommand line compressor : C:\Program Files (x86)\Exact Audio Copy\Flac\flac.exeAdditional command line options : -8 -e -p -V -T "ARTIST=%artist%" -T "TITLE=%title%" -T "ALBUM=%albumtitle%" -T "DATE=%year%" -T "TRACKNUMBER=%tracknr%" -T "GENRE=%genre%" -T "PERFORMER=%albuminterpret%" -T "COMPOSER=%composer%" %haslyrics%--tag-from-file=LYRICS="%lyricsfile%"%haslyrics% -T "ALBUMARTIST=%albumartist%" -T "DISCNUMBER=%cdnumber%" -T "TOTALDISCS=%totalcds%" -T "TOTALTRACKS=%numtracks%" -T "COMMENT=%comment%" %source% -o %dest%
TOC of the extracted CD
Track | Start | Length | Start sector | End sector --------------------------------------------------------- 1 | 0:00.00 | 6:36.72 | 0 | 29771 2 | 6:36.72 | 6:03.51 | 29772 | 57047 3 | 12:40.48 | 4:51.69 | 57048 | 78941 4 | 17:32.42 | 5:32.14 | 78942 | 103855 5 | 23:04.56 | 5:41.09 | 103856 | 129439 6 | 28:45.65 | 4:38.32 | 129440 | 150321 7 | 33:24.22 | 6:06.39 | 150322 | 177810 8 | 39:30.61 | 5:33.61 | 177811 | 202846 9 | 45:04.47 | 5:55.07 | 202847 | 229478 10 | 50:59.54 | 6:07.09 | 229479 | 257012 11 | 57:06.63 | 5:37.12 | 257013 | 282299
Track 1
Filename D:\EACRips\Collide - Color of Nothing\01 - Wake Up.wav
Pre-gap length 0:00:02.00
Peak level 97.5 % Extraction speed 1.2 X Track quality 100.0 % Test CRC BD506754 Copy CRC BD506754 Accurately ripped (confidence 2) [2E5D33EA] (AR v2) Copy OK
Track 2
Filename D:\EACRips\Collide - Color of Nothing\02 - Soul Crush.wav
Peak level 96.7 % Extraction speed 1.4 X Track quality 100.0 % Test CRC 9038F470 Copy CRC 9038F470 Accurately ripped (confidence 2) [02ACC5C6] (AR v2) Copy OK
Track 3
Filename D:\EACRips\Collide - Color of Nothing\03 - Freaks Me Out.wav
Pre-gap length 0:00:00.32
Peak level 96.8 % Extraction speed 1.5 X Track quality 100.0 % Test CRC 36C772C3 Copy CRC 36C772C3 Accurately ripped (confidence 2) [75F3461A] (AR v2) Copy OK
Track 4
Filename D:\EACRips\Collide - Color of Nothing\04 - Will Not Be Destroyed.wav
Pre-gap length 0:00:00.09
Peak level 98.4 % Extraction speed 1.7 X Track quality 100.0 % Test CRC BBA1A15A Copy CRC BBA1A15A Accurately ripped (confidence 2) [22141049] (AR v2) Copy OK
Track 5
Filename D:\EACRips\Collide - Color of Nothing\05 - Side To Side.wav
Pre-gap length 0:00:00.30
Peak level 97.1 % Extraction speed 1.8 X Track quality 100.0 % Test CRC 71725B60 Copy CRC 71725B60 Accurately ripped (confidence 2) [74BD7764] (AR v2) Copy OK
Track 6
Filename D:\EACRips\Collide - Color of Nothing\06 - Intruder.wav
Pre-gap length 0:00:00.32
Peak level 97.0 % Extraction speed 1.9 X Track quality 100.0 % Test CRC CBFCE30B Copy CRC CBFCE30B Accurately ripped (confidence 2) [479702D6] (AR v2) Copy OK
Track 7
Filename D:\EACRips\Collide - Color of Nothing\07 - Fix.wav
Pre-gap length 0:00:02.84
Peak level 97.0 % Extraction speed 1.9 X Track quality 99.9 % Test CRC 4ACD5296 Copy CRC 4ACD5296 Accurately ripped (confidence 2) [EEE4E0A3] (AR v2) Copy OK
Track 8
Filename D:\EACRips\Collide - Color of Nothing\08 - Blurring The Edges.wav
Pre-gap length 0:00:00.38
Peak level 96.9 % Extraction speed 2.1 X Track quality 100.0 % Test CRC 265323DF Copy CRC 265323DF Accurately ripped (confidence 2) [D31FCCA7] (AR v2) Copy OK
Track 9
Filename D:\EACRips\Collide - Color of Nothing\09 - Only Human.wav
Pre-gap length 0:00:00.24
Peak level 97.4 % Extraction speed 2.2 X Track quality 100.0 % Test CRC FFD8EEE2 Copy CRC FFD8EEE2 Accurately ripped (confidence 2) [122820FA] (AR v2) Copy OK
Track 10
Filename D:\EACRips\Collide - Color of Nothing\10 - Say What You Mean.wav
Peak level 96.8 % Extraction speed 2.4 X Track quality 100.0 % Test CRC 09AB50CF Copy CRC 09AB50CF Accurately ripped (confidence 2) [8DB210DA] (AR v2) Copy OK
Track 11
Filename D:\EACRips\Collide - Color of Nothing\11 - Pale Blue.wav
Pre-gap length 0:00:00.56
Peak level 96.7 % Extraction speed 2.4 X Track quality 100.0 % Test CRC 8C84A58C Copy CRC 8C84A58C Accurately ripped (confidence 2) [A2F28934] (AR v2) Copy OK
All tracks accurately ripped
No errors occurred
End of status report
---- CUETools DB Plugin V2.1.6
[CTDB TOCID: 0TGRmR.0HzoxjfMi3HThWr_u53g-] foundSubmit result: 0TGRmR.0HzoxjfMi3HThWr_u53g- has been confirmedTrack | CTDB Status 1 | (7/7) Accurately ripped 2 | (7/7) Accurately ripped 3 | (7/7) Accurately ripped 4 | (7/7) Accurately ripped 5 | (7/7) Accurately ripped 6 | (7/7) Accurately ripped 7 | (7/7) Accurately ripped 8 | (7/7) Accurately ripped 9 | (7/7) Accurately ripped 10 | (7/7) Accurately ripped 11 | (7/7) Accurately ripped
==== Log checksum D069BB321BA31224C41AB329BA288B3F2EF41C1271CA16D279FD0E2469E828D9 ====

Содержание индексной карты (.CUE)

REM GENRE GothicREM DATE 2017REM DISCID 920EB40BREM COMMENT "ExactAudioCopy v1.3"CATALOG 0808458016020PERFORMER "Collide"TITLE "Color Of Nothing"REM COMPOSER ""FILE "01 - Wake Up.wav" WAVE TRACK 01 AUDIO TITLE "Wake Up" PERFORMER "Collide" REM COMPOSER "" ISRC USDDP1700001 INDEX 01 00:00:00FILE "02 - Soul Crush.wav" WAVE TRACK 02 AUDIO TITLE "Soul Crush" PERFORMER "Collide" REM COMPOSER "" ISRC USDDP1700002 INDEX 01 00:00:00 TRACK 03 AUDIO TITLE "Freaks Me Out" PERFORMER "Collide" REM COMPOSER "" ISRC USDDP1700003 INDEX 00 06:03:27FILE "03 - Freaks Me Out.wav" WAVE INDEX 01 00:00:00 TRACK 04 AUDIO TITLE "Will Not Be Destroyed" PERFORMER "Collide" REM COMPOSER "" ISRC USDDP1700004 INDEX 00 04:51:62FILE "04 - Will Not Be Destroyed.wav" WAVE INDEX 01 00:00:00 TRACK 05 AUDIO TITLE "Side To Side" PERFORMER "Collide" REM COMPOSER "" ISRC USDDP1700005 INDEX 00 05:31:66FILE "05 - Side To Side.wav" WAVE INDEX 01 00:00:00 TRACK 06 AUDIO TITLE "Intruder" PERFORMER "Collide" REM COMPOSER "" ISRC USDDP1700006 INDEX 00 05:40:60FILE "06 - Intruder.wav" WAVE INDEX 01 00:00:00 TRACK 07 AUDIO TITLE "Fix" PERFORMER "Collide" REM COMPOSER "" ISRC USDDP1700007 INDEX 00 04:35:44FILE "07 - Fix.wav" WAVE INDEX 01 00:00:00 TRACK 08 AUDIO TITLE "Blurring The Edges" PERFORMER "Collide" REM COMPOSER "" ISRC USDDP1700008 INDEX 00 06:06:10FILE "08 - Blurring The Edges.wav" WAVE INDEX 01 00:00:00 TRACK 09 AUDIO TITLE "Only Human" PERFORMER "Collide" REM COMPOSER "" ISRC USDDP1700009 INDEX 00 05:33:43FILE "09 - Only Human.wav" WAVE INDEX 01 00:00:00FILE "10 - Say What You Mean.wav" WAVE TRACK 10 AUDIO TITLE "Say What You Mean" PERFORMER "Collide" REM COMPOSER "" ISRC USDDP1700010 INDEX 01 00:00:00 TRACK 11 AUDIO TITLE "Pale Blue" PERFORMER "Collide" REM COMPOSER "" ISRC USDDP1700011 INDEX 00 06:06:42FILE "11 - Pale Blue.wav" WAVE INDEX 01 00:00:00


[galltoto.com]_t_5635535.torrent
Торрент: Зарегистрирован ·  [ 2018-10-30 23:59 ] ·  6d518c787897bcd651ad7d18d622fbd883323fbb

35 KB

Статус: проверено
Скачан: 0 раз
Размер: 428 MB
Оценка: 
(Голосов: 0)
Сказали спасибо: 0  Спасибо
Похожие темы
[Профиль]    [ЛС]
Показать сообщения:    
Ответить на тему

Текущее время: Сегодня 12:47

Часовой пояс: GMT + 7



Вы не можете начинать темы
Вы не можете отвечать на сообщения
Вы не можете редактировать свои сообщения
Вы не можете удалять свои сообщения
Вы не можете голосовать в опросах
Вы не можете прикреплять файлы к сообщениям
Вы можете скачивать файлы


Star Butterfly 05 | Tây Du chap 183 - End | Chicago PD HDTV