(Шансон) [CD] Катерина Голицына - Все в шоколаде - 2005, FLAC (image+.cue), lossless

Ответить на тему
Статистика раздачи [Обновить пиров]
Размер:  609 MB   |    Зарегистрирован:  2 месяца 21 день   |    Скачан:  0 раз

Полного источника не было: Никогда

 
   
 
 
 
Автор Сообщение

galltoto.com

Создавать темы 29-Окт-2018 02:25

[Цитировать]

Катерина Голицына / Все в шоколаде
Жанр: Шансон
Носитель: CD
Страна-производитель диска (релиза): Россия
Год издания: 2005
Издатель (лейбл): Русский шансон
Номер по каталогу: РШ CD 057/05
Страна исполнителя (группы): Россия
Аудиокодек: FLAC (*.flac)
Тип рипа: image+.cue
Битрейт аудио: lossless
Продолжительность: 01:19:21
Источник (релизер): Свой рип
Наличие сканов в содержимом раздачи: да
Треклист:
01. Любовь заочная
02. Декабристочка
03. Пять точек
04. Мисс ЗК
05. Товарищ майор
06. День за днем
07. Сухарики
08. Оперок
09. Письмо с севера
10. Музыкант из перехода
11. Алюминевая брошка
12. Таксист
13. Духи с ароматом озона
14. Обломов
15. Русалка
16. Неправильная песня
17. Реверанс
18. Привокзальные голуби
19. Любимый
20. Нефраерский романс

Лог создания рипа

Exact Audio Copy V1.3 from 2. September 2016
Отчёт EAC об извлечении, выполненном 16. октября 2018, 19:18
Катерина Голицына / Все в шоколаде
Дисковод: ASUS DRW-24F1MT Adapter: 1 ID: 0
Режим чтения : ДостоверностьИспользование точного потока : ДаОтключение кэша аудио : ДаИспользование указателей C2 : Нет
Коррекция смещения при чтении : 6Способность читать области Lead-in и Lead-out : НетЗаполнение пропущенных сэмплов тишиной : ДаУдаление блоков с тишиной в начале и конце : НетПри вычислениях CRC использовались нулевые сэмплы : ДаИнтерфейс : Встроенный Win32-интерфейс для Win NT/2000
Выходной формат : Пользовательский кодировщикВыбранный битрейт : 128 kBit/sКачество : ВысокийДобавление ID3-тега : НетУтилита сжатия : C:\Program Files (x86)\Exact Audio Copy\Flac\flac.exeДополнительные параметры : -V -8 -T "Date=%year%" -T "Genre=%genre%" %source%
TOC извлечённого CD
Трек | Старт | Длительность | Начальный сектор | Конечный сектор --------------------------------------------------------------------- 1 | 0:00.00 | 3:59.27 | 0 | 17951 2 | 3:59.27 | 3:29.13 | 17952 | 33639 3 | 7:28.40 | 4:26.12 | 33640 | 53601 4 | 11:54.52 | 3:50.11 | 53602 | 70862 5 | 15:44.63 | 3:34.23 | 70863 | 86935 6 | 19:19.11 | 3:56.08 | 86936 | 104643 7 | 23:15.19 | 3:45.57 | 104644 | 121575 8 | 27:01.01 | 3:34.31 | 121576 | 137656 9 | 30:35.32 | 4:01.00 | 137657 | 155731 10 | 34:36.32 | 3:54.06 | 155732 | 173287 11 | 38:30.38 | 4:11.72 | 173288 | 192184 12 | 42:42.35 | 4:48.13 | 192185 | 213797 13 | 47:30.48 | 4:01.71 | 213798 | 231943 14 | 51:32.44 | 4:08.52 | 231944 | 250595 15 | 55:41.21 | 4:12.61 | 250596 | 269556 16 | 59:54.07 | 3:52.70 | 269557 | 287026 17 | 63:47.02 | 3:29.11 | 287027 | 302712 18 | 67:16.13 | 4:25.36 | 302713 | 322623 19 | 71:41.49 | 4:18.51 | 322624 | 342024 20 | 76:00.25 | 3:20.38 | 342025 | 357062
Характеристики диапазона извлечения и сообщения об ошибках
Выбранный диапазон
Имя файла E:\Раздачи\Папки\Катерина Голицына - Все в шоколаде\Катерина Голицына - Все в шоколаде.wav
Пиковый уровень 98.9 % Скорость извлечения 8.1 X Качество диапазона 100.0 % CRC теста 30780C66 CRC копии 30780C66 Копирование... OK
Ошибок не произошло
AccurateRip: сводка
Трек 1 отсутствует в базе данныхТрек 2 отсутствует в базе данныхТрек 3 отсутствует в базе данныхТрек 4 отсутствует в базе данныхТрек 5 отсутствует в базе данныхТрек 6 отсутствует в базе данныхТрек 7 отсутствует в базе данныхТрек 8 отсутствует в базе данныхТрек 9 отсутствует в базе данныхТрек 10 отсутствует в базе данныхТрек 11 отсутствует в базе данныхТрек 12 отсутствует в базе данныхТрек 13 отсутствует в базе данныхТрек 14 отсутствует в базе данныхТрек 15 отсутствует в базе данныхТрек 16 отсутствует в базе данныхТрек 17 отсутствует в базе данныхТрек 18 отсутствует в базе данныхТрек 19 отсутствует в базе данныхТрек 20 отсутствует в базе данных
Ни одного трека нет в базе AccurateRip
Конец отчёта
==== Контрольная сумма отчёта 7C6C8DFBA8B9C6D1AF06698F4B385628040B95F476B2C375816107C4926E8A6E ====

Содержание индексной карты (.CUE)

REM GENRE ChansonREM DATE 2005REM DISCID 1F129814REM COMMENT "ExactAudioCopy v1.3"PERFORMER "Катерина Голицына"TITLE "Все в шоколаде"REM COMPOSER ""FILE "Катерина Голицына - Все в шоколаде.flac" WAVE TRACK 01 AUDIO TITLE "Любовь заочная" PERFORMER "Катерина Голицына" REM COMPOSER "" INDEX 01 00:00:00 TRACK 02 AUDIO TITLE "Декабристочка" PERFORMER "Катерина Голицына" REM COMPOSER "" INDEX 00 03:57:52 INDEX 01 03:59:27 TRACK 03 AUDIO TITLE "Пять точек" PERFORMER "Катерина Голицына" REM COMPOSER "" INDEX 00 07:26:65 INDEX 01 07:28:40 TRACK 04 AUDIO TITLE "Мисс ЗК" PERFORMER "Катерина Голицына" REM COMPOSER "" INDEX 00 11:53:02 INDEX 01 11:54:52 TRACK 05 AUDIO TITLE "Товарищ майор" PERFORMER "Катерина Голицына" REM COMPOSER "" INDEX 00 15:43:13 INDEX 01 15:44:63 TRACK 06 AUDIO TITLE "День за днем" PERFORMER "Катерина Голицына" REM COMPOSER "" INDEX 00 19:17:36 INDEX 01 19:19:11 TRACK 07 AUDIO TITLE "Сухарики" PERFORMER "Катерина Голицына" REM COMPOSER "" INDEX 00 23:13:44 INDEX 01 23:15:19 TRACK 08 AUDIO TITLE "Оперок" PERFORMER "Катерина Голицына" REM COMPOSER "" INDEX 00 26:59:26 INDEX 01 27:01:01 TRACK 09 AUDIO TITLE "Письмо с севера" PERFORMER "Катерина Голицына" REM COMPOSER "" INDEX 00 30:33:57 INDEX 01 30:35:32 TRACK 10 AUDIO TITLE "Музыкант из перехода" PERFORMER "Катерина Голицына" REM COMPOSER "" INDEX 00 34:34:57 INDEX 01 34:36:32 TRACK 11 AUDIO TITLE "Алюминевая брошка" PERFORMER "Катерина Голицына" REM COMPOSER "" INDEX 00 38:28:63 INDEX 01 38:30:38 TRACK 12 AUDIO TITLE "Таксист" PERFORMER "Катерина Голицына" REM COMPOSER "" INDEX 00 42:40:60 INDEX 01 42:42:35 TRACK 13 AUDIO TITLE "Духи с ароматом озона" PERFORMER "Катерина Голицына" REM COMPOSER "" INDEX 00 47:28:73 INDEX 01 47:30:48 TRACK 14 AUDIO TITLE "Обломов" PERFORMER "Катерина Голицына" REM COMPOSER "" INDEX 00 51:30:69 INDEX 01 51:32:44 TRACK 15 AUDIO TITLE "Русалка" PERFORMER "Катерина Голицына" REM COMPOSER "" INDEX 00 55:39:46 INDEX 01 55:41:21 TRACK 16 AUDIO TITLE "Неправильная песня" PERFORMER "Катерина Голицына" REM COMPOSER "" INDEX 00 59:52:33 INDEX 01 59:54:07 TRACK 17 AUDIO TITLE "Реверанс" PERFORMER "Катерина Голицына" REM COMPOSER "" INDEX 00 63:45:27 INDEX 01 63:47:02 TRACK 18 AUDIO TITLE "Привокзальные голуби" PERFORMER "Катерина Голицына" REM COMPOSER "" INDEX 00 67:14:38 INDEX 01 67:16:13 TRACK 19 AUDIO TITLE "Любимый" PERFORMER "Катерина Голицына" REM COMPOSER "" INDEX 00 71:39:74 INDEX 01 71:41:49 TRACK 20 AUDIO TITLE "Нефраерский романс" PERFORMER "Катерина Голицына" REM COMPOSER "" INDEX 00 75:58:49 INDEX 01 76:00:25

Лог проверки качества

-----------------------
DON'T MODIFY THIS FILE
-----------------------
PERFORMER: auCDtect Task Manager, ver. 1.6.0 RC1 build 1.6.0.1Copyright (c) 2008-2010 y-soft. All rights reservedhttp://y-soft.org
ANALYZER: auCDtect: CD records authenticity detector, version 0.8.2Copyright (c) 2004 Oleg Berngardt. All rights reserved.Copyright (c) 2004 Alexander Djourik. All rights reserved.
FILE: Катерина Голицына - Все в шоколаде.flac Size: 621187243 Hash: 668B4E314AAE63218B161560A1BADF5B Accuracy: -m0 Conclusion: CDDA 100% Signature: 94E09A82EBB33CA78F4A2137406A5741C9CAFF2E


[galltoto.com]_t_5635160.torrent
Торрент: Зарегистрирован ·  [ 2018-10-29 02:25 ] ·  9ec98e071bd1adfc8518032dd23800ee25823690

13 KB

Статус: проверено
Скачан: 0 раз
Размер: 609 MB
Оценка: 
(Голосов: 0)
Сказали спасибо: 0  Спасибо
Похожие темы
[Профиль]    [ЛС]
Показать сообщения:    
Ответить на тему

Текущее время: Сегодня 13:40

Часовой пояс: GMT + 7



Вы не можете начинать темы
Вы не можете отвечать на сообщения
Вы не можете редактировать свои сообщения
Вы не можете удалять свои сообщения
Вы не можете голосовать в опросах
Вы не можете прикреплять файлы к сообщениям
Вы можете скачивать файлы


Call Recorder - Automatic 1.1.114 APK | Watch Movie | Coles Little Shop Mini Collectibles Cheap Limited Time Only Kids New 1 minis