(Шансон, Авторская песня) Марк Фрейдкин и группа "Гой" - Песни Жоржа Брассенса и Запоздалые Романсы - 1997, FLAC (image+.cue), lossless

Ответить на тему
Статистика раздачи [Обновить пиров]
Размер:  237 MB   |    Зарегистрирован:  2 месяца 28 дней   |    Скачан:  0 раз

Полного источника не было: Никогда

 
   
 
 
 
Автор Сообщение

galltoto.com

Создавать темы 21-Окт-2018 20:23

[Цитировать]

Марк Фрейдкин и группа "Гой" / Песни Жоржа Брассенса и Запоздалые Романсы
Жанр: Chanson
Год издания: 1997
Страна исполнителя (группы): Россия
Аудиокодек: FLAC (*.flac)
Тип рипа: image+.cue
Битрейт аудио: lossless
Продолжительность: 0:56:09
Источник (релизер): пожелал себя не афишировать
Наличие сканов в содержимом раздачи: да
Треклист:
01. Песня для овернца
02. Маринетта
03. Пупок жены сотрудника полиции
04. Сквернослов
05. Моя душечка
06. Все за одного
07. 22 сентября
08. Завещание с просьбой быть похороненным на пляже в Сете
09. Негодный мальчуган
10. Фернанда
11. Такой роскошный бюст
12. Шалунья
13. Я ее не люблю
14. Запоздалый романс
15. Романс под гитару
16. Романс под мандолину
17. Разлука
18. Вот и лето прошло...

Лог создания рипа

Exact Audio Copy V1.3 from 2. September 2016
Отчёт EAC об извлечении, выполненном 21. сентября 2018, 23:27
Марк Фрейдкин и группа "Гой" / Песни Жоржа Брассенса и Запоздалые романсы
Дисковод: SlimtypeDVD A DA8A5SH-L Adapter: 1 ID: 0
Режим чтения : ДостоверностьИспользование точного потока : ДаОтключение кэша аудио : ДаИспользование указателей C2 : Нет
Коррекция смещения при чтении : 6Способность читать области Lead-in и Lead-out : НетЗаполнение пропущенных сэмплов тишиной : ДаУдаление блоков с тишиной в начале и конце : НетПри вычислениях CRC использовались нулевые сэмплы : ДаИнтерфейс : Встроенный Win32-интерфейс для Win NT/2000
Выходной формат : Пользовательский кодировщикВыбранный битрейт : 128 kBit/sКачество : ВысокийДобавление ID3-тега : НетУтилита сжатия : C:\Program Files (x86)\Exact Audio Copy\Flac\flac.exeДополнительные параметры : -V -8 -T "Date=%year%" -T "Genre=%genre%" %source%
TOC извлечённого CD
Трек | Старт | Длительность | Начальный сектор | Конечный сектор --------------------------------------------------------------------- 1 | 0:00.00 | 3:06.53 | 0 | 14002 2 | 3:06.53 | 1:51.39 | 14003 | 22366 3 | 4:58.17 | 2:19.57 | 22367 | 32848 4 | 7:17.74 | 3:59.63 | 32849 | 50836 5 | 11:17.62 | 2:27.23 | 50837 | 61884 6 | 13:45.10 | 4:09.67 | 61885 | 80626 7 | 17:55.02 | 3:32.62 | 80627 | 96588 8 | 21:27.64 | 7:11.65 | 96589 | 128978 9 | 28:39.54 | 3:22.30 | 128979 | 144158 10 | 32:02.09 | 3:55.22 | 144159 | 161805 11 | 35:57.31 | 3:25.39 | 161806 | 177219 12 | 39:22.70 | 1:32.07 | 177220 | 184126 13 | 40:55.02 | 1:45.37 | 184127 | 192038 14 | 42:40.39 | 2:35.60 | 192039 | 203723 15 | 45:16.24 | 2:52.31 | 203724 | 216654 16 | 48:08.55 | 1:31.62 | 216655 | 223541 17 | 49:40.42 | 5:13.59 | 223542 | 247075 18 | 54:54.26 | 1:15.21 | 247076 | 252721
Характеристики диапазона извлечения и сообщения об ошибках
Выбранный диапазон
Имя файла C:\Users\user\Desktop\Песни Жоржа Брассенса в переводе и исполнении Марка Фрейдкина\Марк Фрейдкин и группа ''Гой'' - Песни Жоржа Брассенса и Запоздалые романсы.wav
Пиковый уровень 100.0 % Скорость извлечения 4.0 X Качество диапазона 100.0 % CRC теста F5A5836C CRC копии F5A5836C Копирование... OK
Ошибок не произошло
Конец отчёта
==== Контрольная сумма отчёта F44EC7DC8BA8053A678D8C792FE776EC3A672DCE045B981E5BF59C3B6C3272F2 ====

Содержание индексной карты (.CUE)

REM GENRE ChansonREM DATE 1997REM DISCID 1B0D2912REM COMMENT "ExactAudioCopy v1.3"PERFORMER "Марк Фрейдкин и группа 'Гой'"TITLE "Песни Жоржа Брассенса и Запоздалые романсы"REM COMPOSER ""FILE "Марк Фрейдкин и группа ''Гой'' - Песни Жоржа Брассенса и Запоздалые романсы.FLAC" WAVE TRACK 01 AUDIO TITLE "Песня для овернца" PERFORMER "Марк Фрейдкин и группа 'Гой'" REM COMPOSER "" INDEX 01 00:00:00 TRACK 02 AUDIO TITLE "Маринетта" PERFORMER "Марк Фрейдкин и группа 'Гой'" REM COMPOSER "" INDEX 01 03:06:53 TRACK 03 AUDIO TITLE "Пупок жены сотрудника полиции" PERFORMER "Марк Фрейдкин и группа 'Гой'" REM COMPOSER "" INDEX 01 04:58:17 TRACK 04 AUDIO TITLE "Сквернослов" PERFORMER "Марк Фрейдкин и группа 'Гой'" REM COMPOSER "" INDEX 01 07:17:74 TRACK 05 AUDIO TITLE "Моя душечка" PERFORMER "Марк Фрейдкин и группа 'Гой'" REM COMPOSER "" INDEX 01 11:17:62 TRACK 06 AUDIO TITLE "Все за одного" PERFORMER "Марк Фрейдкин и группа 'Гой'" REM COMPOSER "" INDEX 01 13:45:10 TRACK 07 AUDIO TITLE "22 сентября" PERFORMER "Марк Фрейдкин и группа 'Гой'" REM COMPOSER "" INDEX 01 17:55:02 TRACK 08 AUDIO TITLE "Завещание с просьбой быть похороненным на пляже в Сете" PERFORMER "Марк Фрейдкин и группа 'Гой'" REM COMPOSER "" INDEX 01 21:27:64 TRACK 09 AUDIO TITLE "Негодный мальчуган" PERFORMER "Марк Фрейдкин и группа 'Гой'" REM COMPOSER "" INDEX 01 28:39:54 TRACK 10 AUDIO TITLE "Фернанда" PERFORMER "Марк Фрейдкин и группа 'Гой'" REM COMPOSER "" INDEX 01 32:02:09 TRACK 11 AUDIO TITLE "Такой роскошный бюст" PERFORMER "Марк Фрейдкин и группа 'Гой'" REM COMPOSER "" INDEX 01 35:57:31 TRACK 12 AUDIO TITLE "Шалунья" PERFORMER "Марк Фрейдкин и группа 'Гой'" REM COMPOSER "" INDEX 01 39:22:70 TRACK 13 AUDIO TITLE "Я ее не люблю" PERFORMER "Марк Фрейдкин и группа 'Гой'" REM COMPOSER "" INDEX 01 40:55:02 TRACK 14 AUDIO TITLE "Запоздалый романс" PERFORMER "Марк Фрейдкин и группа 'Гой'" REM COMPOSER "" INDEX 01 42:40:39 TRACK 15 AUDIO TITLE "Романс под гитару" PERFORMER "Марк Фрейдкин и группа 'Гой'" REM COMPOSER "" INDEX 01 45:16:24 TRACK 16 AUDIO TITLE "Романс под мандолину" PERFORMER "Марк Фрейдкин и группа 'Гой'" REM COMPOSER "" INDEX 01 48:08:55 TRACK 17 AUDIO TITLE "Разлука" PERFORMER "Марк Фрейдкин и группа 'Гой'" REM COMPOSER "" INDEX 01 49:40:42 TRACK 18 AUDIO TITLE "Вот и лето прошло" PERFORMER "Марк Фрейдкин и группа 'Гой'" REM COMPOSER "" INDEX 01 54:54:26
Раздача обновлена. Добавлен еще один вариант рипа и сканы.


[galltoto.com]_t_5028782.torrent
Торрент: Зарегистрирован ·  [ 2018-10-21 20:20 ] ·  3ac52f03cf4763ef44dc9c34dae181dae6f13d69

20 KB

Статус: проверено
Скачан: 0 раз
Размер: 237 MB
Оценка: 
(Голосов: 0)
Сказали спасибо: 0  Спасибо
Похожие темы
[Профиль]    [ЛС]
Показать сообщения:    
Ответить на тему

Текущее время: Сегодня 13:31

Часовой пояс: GMT + 7



Вы не можете начинать темы
Вы не можете отвечать на сообщения
Вы не можете редактировать свои сообщения
Вы не можете удалять свои сообщения
Вы не можете голосовать в опросах
Вы не можете прикреплять файлы к сообщениям
Вы можете скачивать файлы


Baixar toque para celular | Distancia: más cercanos primero | Moto Guzzi Motoleggera 65 Oldtimer Italien Motorrad 1949 mit Österr. Papieren