(Шансон) [CD] Любовь Шепилова - Розы - 2006, FLAC (image+.cue), lossless

Ответить на тему
Статистика раздачи [Обновить пиров]
Размер:  384 MB   |    Зарегистрирован:  3 месяца 4 дня   |    Скачан:  0 раз

Полного источника не было: Никогда

 
   
 
 
 
Автор Сообщение

galltoto.com

Создавать темы 14-Окт-2018 20:24

[Цитировать]

Любовь Шепилова / Розы
Жанр: Шансон
Носитель: CD
Страна-производитель диска (релиза): Россия
Год издания: 2006
Издатель (лейбл): Kvadro
Номер по каталогу: EXL06-340
Страна исполнителя (группы): Россия
Аудиокодек: FLAC (*.flac)
Тип рипа: image+.cue
Битрейт аудио: lossless
Продолжительность: 00:52:15
Источник (релизер): Свой рип
Наличие сканов в содержимом раздачи: да
Треклист:
01.Сонные затоны ( дуэт с М.Горшковым )
02.Училка
03.Розы
04.Загулял ветерок
05.Луна
06.Клён
07.Листопад
08.Цыганка гадала
09.Снег среди лета
10.Корабль
11.День рождения у армяна
12.Листья каштана
13.Медсестра Любаня
14.Барин ( бонус, дуэт с К.Голицыной )

Лог создания рипа

Exact Audio Copy V1.3 from 2. September 2016
Отчёт EAC об извлечении, выполненном 12. октября 2018, 19:58
Любовь Шепилова / Розы
Дисковод: ASUS DRW-24F1MT Adapter: 1 ID: 0
Режим чтения : ДостоверностьИспользование точного потока : ДаОтключение кэша аудио : ДаИспользование указателей C2 : Нет
Коррекция смещения при чтении : 6Способность читать области Lead-in и Lead-out : НетЗаполнение пропущенных сэмплов тишиной : ДаУдаление блоков с тишиной в начале и конце : НетПри вычислениях CRC использовались нулевые сэмплы : ДаИнтерфейс : Встроенный Win32-интерфейс для Win NT/2000
Выходной формат : Пользовательский кодировщикВыбранный битрейт : 128 kBit/sКачество : ВысокийДобавление ID3-тега : НетУтилита сжатия : C:\Program Files (x86)\Exact Audio Copy\Flac\flac.exeДополнительные параметры : -V -8 -T "Date=%year%" -T "Genre=%genre%" %source%
TOC извлечённого CD
Трек | Старт | Длительность | Начальный сектор | Конечный сектор --------------------------------------------------------------------- 1 | 0:00.00 | 3:59.03 | 0 | 17927 2 | 3:59.03 | 3:44.21 | 17928 | 34748 3 | 7:43.24 | 3:55.60 | 34749 | 52433 4 | 11:39.09 | 3:25.15 | 52434 | 67823 5 | 15:04.24 | 3:56.66 | 67824 | 85589 6 | 19:01.15 | 3:16.15 | 85590 | 100304 7 | 22:17.30 | 3:51.09 | 100305 | 117638 8 | 26:08.39 | 3:19.60 | 117639 | 132623 9 | 29:28.24 | 4:41.12 | 132624 | 153710 10 | 34:09.36 | 4:14.66 | 153711 | 172826 11 | 38:24.27 | 3:17.48 | 172827 | 187649 12 | 41:42.00 | 3:17.21 | 187650 | 202445 13 | 44:59.21 | 3:41.03 | 202446 | 219023 14 | 48:40.24 | 3:34.42 | 219024 | 235115
Характеристики диапазона извлечения и сообщения об ошибках
Выбранный диапазон
Имя файла E:\Раздачи\Папки\Любовь Шепилова - Розы\Любовь Шепилова - Розы.wav
Пиковый уровень 100.0 % Скорость извлечения 7.4 X Качество диапазона 100.0 % CRC теста 00F748BD CRC копии 00F748BD Копирование... OK
Ошибок не произошло
AccurateRip: сводка
Трек 1 отсутствует в базе данныхТрек 2 отсутствует в базе данныхТрек 3 отсутствует в базе данныхТрек 4 отсутствует в базе данныхТрек 5 отсутствует в базе данныхТрек 6 отсутствует в базе данныхТрек 7 отсутствует в базе данныхТрек 8 отсутствует в базе данныхТрек 9 отсутствует в базе данныхТрек 10 отсутствует в базе данныхТрек 11 отсутствует в базе данныхТрек 12 отсутствует в базе данныхТрек 13 отсутствует в базе данныхТрек 14 отсутствует в базе данных
Ни одного трека нет в базе AccurateRip
Конец отчёта
==== Контрольная сумма отчёта 0F168EADE84C5E3F7EDC5365B214A76678C76530E2EAC8D900C6C178BD9BD840 ====

Содержание индексной карты (.CUE)

REM GENRE ChansonREM DATE 2006REM DISCID 9B0C3E0EREM COMMENT "ExactAudioCopy v1.3"PERFORMER "Любовь Шепилова"TITLE "Розы"REM COMPOSER ""FILE "Любовь Шепилова - Розы.flac" WAVE TRACK 01 AUDIO TITLE "Сонные затоны (дуэт с М.Горшковым)" PERFORMER "Любовь Шепилова" REM COMPOSER "" INDEX 01 00:00:00 TRACK 02 AUDIO TITLE "Училка" PERFORMER "Любовь Шепилова" REM COMPOSER "" INDEX 01 03:59:03 TRACK 03 AUDIO TITLE "Розы" PERFORMER "Любовь Шепилова" REM COMPOSER "" INDEX 01 07:43:24 TRACK 04 AUDIO TITLE "Загулял ветерок" PERFORMER "Любовь Шепилова" REM COMPOSER "" INDEX 01 11:39:09 TRACK 05 AUDIO TITLE "Луна" PERFORMER "Любовь Шепилова" REM COMPOSER "" INDEX 01 15:04:24 TRACK 06 AUDIO TITLE "Клен" PERFORMER "Любовь Шепилова" REM COMPOSER "" INDEX 01 19:01:15 TRACK 07 AUDIO TITLE "Листопад" PERFORMER "Любовь Шепилова" REM COMPOSER "" INDEX 01 22:17:30 TRACK 08 AUDIO TITLE "Цыганка гадала" PERFORMER "Любовь Шепилова" REM COMPOSER "" INDEX 01 26:08:39 TRACK 09 AUDIO TITLE "Снег среди лета" PERFORMER "Любовь Шепилова" REM COMPOSER "" INDEX 01 29:28:24 TRACK 10 AUDIO TITLE "Корабль" PERFORMER "Любовь Шепилова" REM COMPOSER "" INDEX 01 34:09:36 TRACK 11 AUDIO TITLE "День рождения у армяна" PERFORMER "Любовь Шепилова" REM COMPOSER "" INDEX 01 38:24:27 TRACK 12 AUDIO TITLE "Листья каштана" PERFORMER "Любовь Шепилова" REM COMPOSER "" INDEX 01 41:42:00 TRACK 13 AUDIO TITLE "Медсестра Любаня" PERFORMER "Любовь Шепилова" REM COMPOSER "" INDEX 01 44:59:21 TRACK 14 AUDIO TITLE "Track14Барин (бонус, дуэт с К.Голицыной)" PERFORMER "Любовь Шепилова" REM COMPOSER "" INDEX 01 48:40:24

Лог проверки качества

-----------------------
DON'T MODIFY THIS FILE
-----------------------
PERFORMER: auCDtect Task Manager, ver. 1.6.0 RC1 build 1.6.0.1Copyright (c) 2008-2010 y-soft. All rights reservedhttp://y-soft.org
ANALYZER: auCDtect: CD records authenticity detector, version 0.8.2Copyright (c) 2004 Oleg Berngardt. All rights reserved.Copyright (c) 2004 Alexander Djourik. All rights reserved.
FILE: Любовь Шепилова - Розы.flac Size: 384490326 Hash: 167F18FFB380B98D5913664BEBB10AC8 Accuracy: -m0 Conclusion: CDDA 100% Signature: E6666F514A512401ACE761F97ABDAA1BD81F29AF


[galltoto.com]_t_5627929.torrent
Торрент: Зарегистрирован ·  [ 2018-10-14 20:22 ] ·  38f9ea4a8f92c777fa4aa36bc6f4f8861df48e2e

16 KB

Статус: проверено
Скачан: 0 раз
Размер: 384 MB
Оценка: 
(Голосов: 0)
Сказали спасибо: 0  Спасибо
Похожие темы
[Профиль]    [ЛС]
Показать сообщения:    
Ответить на тему

Текущее время: Сегодня 13:45

Часовой пояс: GMT + 7



Вы не можете начинать темы
Вы не можете отвечать на сообщения
Вы не можете редактировать свои сообщения
Вы не можете удалять свои сообщения
Вы не можете голосовать в опросах
Вы не можете прикреплять файлы к сообщениям
Вы можете скачивать файлы


Niedrigster Preis | 100 tiras One touch VERIO | Masaya Ozaki