(Dub, Downtempo, Ambient) [WEB] Bluetech - Prima Materia (Remastered 15 Year Anniversary Edition) - 2018, FLAC (tracks), lossless

Ответить на тему
Статистика раздачи [Обновить пиров]
Размер:  437 MB   |    Зарегистрирован:  3 месяца 15 дней   |    Скачан:  0 раз

Полного источника не было: Никогда

 
   
 
 
 
Автор Сообщение

galltoto.com

Создавать темы 03-Окт-2018 17:22

[Цитировать]

Bluetech / Prima Materia (Remastered 15 Year Anniversary Edition)
Жанр: Dub, Downtempo, Ambient
Носитель: WEB
Дата издания: 23.09.2018
Лейбл: Original released on Waveform Records, and re-released on Aleph Zero Records
Аудиокодек: FLAC (*.flac)
Битрейт аудио: lossless
Разрядность: 16/44,1
Тип рипа: tracks
Продолжительность: 01:07:16
Наличие сканов в содержимом раздачи: Только обложка альбома
Источник: Bandcamp
Треклист:
1. Leaving Babylon — 06:44
2. Prophetic Sines — 06:18
3. Triangle (Re-Triangulated) — 07:04
4. Rubicon — 05:58
5. Prayers For Rain (Dub Mix) — 06:54
6. White Magnesia — 05:42
7. 7th Phase Dub — 06:30
8. Burning Waters — 06:35
9. Mezzamorphic — 08:00
10. Desperate Ends — 05:35
11. Cliffdiving — 01:56

Об альбоме

Bluetech’s first album lovingly re-mastered by Audible Oddities on analog hardware for richer harmonics, clarity, depth and presence, Bluetech’s first album Prima Materia gets its 15 year anniversary re-issue.

Лог проверки качества

foobar2000 1.4 / Замер динамического диапазона (DR) 1.1.1Дата отчёта: 2018-09-25 00:12:13
--------------------------------------------------------------------------------Анализ: Bluetech / Prima Materia (Remastered 15 Year Anniversary Edition)--------------------------------------------------------------------------------
DR Пики RMS Продолжительность трека--------------------------------------------------------------------------------DR9 -0.11 дБ -11.15 дБ 6:45 01-Leaving BabylonDR7 -0.26 дБ -9.52 дБ 6:18 02-Prophetic SinesDR9 -0.23 дБ -12.10 дБ 7:05 03-Triangle (Re-Triangulated)DR8 -0.21 дБ -9.48 дБ 5:59 04-RubiconDR7 -0.20 дБ -8.57 дБ 6:54 05-Prayers For Rain (Dub Mix)DR7 -0.20 дБ -9.78 дБ 5:42 06-White MagnesiaDR8 -0.20 дБ -10.83 дБ 6:30 07-7th Phase DubDR7 -0.24 дБ -9.38 дБ 6:36 08-Burning WatersDR7 -0.27 дБ -9.27 дБ 8:00 09-MezzamorphicDR9 -0.26 дБ -11.13 дБ 5:35 10-Desperate EndsDR9 -0.30 дБ -13.72 дБ 1:57 11-Cliffdiving--------------------------------------------------------------------------------
Количество треков: 11Реальные значения DR: DR8
Частота: 44100 ГцКаналов: 2Разрядность: 16Битрейт: 555 кбит/сКодек: FLAC================================================================================

Скриншот спектра частот



[galltoto.com]_t_5618492.torrent
Торрент: Зарегистрирован ·  [ 2018-10-03 17:22 ] ·  a1aa895d365474f99e9ebb263a0f437e1c3a5bf1

35 KB

Статус: проверено
Скачан: 0 раз
Размер: 437 MB
Оценка: 
(Голосов: 0)
Сказали спасибо: 0  Спасибо
Похожие темы
[Профиль]    [ЛС]
Показать сообщения:    
Ответить на тему

Текущее время: Сегодня 20:55

Часовой пояс: GMT + 7



Вы не можете начинать темы
Вы не можете отвечать на сообщения
Вы не можете редактировать свои сообщения
Вы не можете удалять свои сообщения
Вы не можете голосовать в опросах
Вы не можете прикреплять файлы к сообщениям
Вы можете скачивать файлы


Les Miserables (2018) S1E1 Episode 1 | Ex-Girlfriends.18.12.31.Alexa.Tomas.XXX.1080p.MP4-KTR[N1C] | or Learn More