(Шансон) Гриша Заречный (Григорий Ишханов) - Дискография (11 CD) - 2000-2011, FLAC (image+.cue), lossless

Ответить на тему
Статистика раздачи [Обновить пиров]
Размер:  4.7 GB   |    Зарегистрирован:  3 месяца 18 дней   |    Скачан:  0 раз

Полного источника не было: Никогда

 
   
 
 
 
Автор Сообщение

galltoto.com

Создавать темы 30-Сен-2018 17:13

[Цитировать]

- ---Гриша Заречный--- - - ---Жанр: Шансон
Годы издания: 2000-2011
Аудиокодек: FLAC | MP3
Тип рипа: tracks
Битрейт аудио: lossless
Продолжительность: 10:50:12
Источник (релизер): [url=profile.php?mode=viewprofile&u=22110310]shansonchik[/url]
Наличие сканов в содержимом раздачи: да | 600 dpi |
--- -Альбомы-

| 00:43:47 | – 2000 – А я люблю свой город

-01 - Короли
02 - Инспектору
03 - Трын-трава
04 - Друг
05 - Ростовчанки
06 - Фонари
07 - По кабакам
08 - Слезинка
09 - База отдыха
10 - Сын
11 - Баку

Лог создания рипа

Exact Audio Copy V1.0 beta 4 from 7. December 2014
Отчёт EAC об извлечении, выполненном 22. сентября 2018, 14:53
Григорий Заречный / А я люблю свой город
Дисковод: ASUS DRW-1814BL Adapter: 1 ID: 0
Режим чтения : ДостоверностьИспользование точного потока : ДаОтключение кэша аудио : ДаИспользование указателей C2 : Нет
Коррекция смещения при чтении : 6Способность читать области Lead-in и Lead-out : НетЗаполнение пропущенных сэмплов тишиной : ДаУдаление блоков с тишиной в начале и конце : НетПри вычислениях CRC использовались нулевые сэмплы : ДаИнтерфейс : Встроенный Win32-интерфейс для Win NT/2000
Выходной формат : Пользовательский кодировщикВыбранный битрейт : 128 kBit/sКачество : ВысокийДобавление ID3-тега : НетУтилита сжатия : C:\Program Files\Exact Audio Copy\Flac\flac.exeДополнительные параметры : -V -8 -T "Date=%year%" -T "Genre=%genre%" %source%
TOC извлечённого CD
Трек | Старт | Длительность | Начальный сектор | Конечный сектор --------------------------------------------------------------------- 1 | 0:00.27 | 4:07.60 | 27 | 18611 2 | 4:08.12 | 3:20.03 | 18612 | 33614 3 | 7:28.15 | 2:37.30 | 33615 | 45419 4 | 10:05.45 | 4:35.50 | 45420 | 66094 5 | 14:41.20 | 3:01.30 | 66095 | 79699 6 | 17:42.50 | 3:53.60 | 79700 | 97234 7 | 21:36.35 | 3:52.62 | 97235 | 114696 8 | 25:29.22 | 4:02.23 | 114697 | 132869 9 | 29:31.45 | 3:24.17 | 132870 | 148186 10 | 32:55.62 | 4:23.68 | 148187 | 167979 11 | 37:19.55 | 6:28.00 | 167980 | 197079
Характеристики диапазона извлечения и сообщения об ошибках
Выбранный диапазон
Имя файла E:\shansonchik\Григорий Заречный - А я люблю свой город.wav
Пиковый уровень 99.2 % Скорость извлечения 6.7 X Качество диапазона 100.0 % CRC теста E009EE39 CRC копии E009EE39 Копирование... OK
Ошибок не произошло
Конец отчёта
==== Контрольная сумма отчёта 41C6ACBBBB6231F2303A131E04A6FFFED8F896718D764A26EFA8A19FDCFBB39E ====

Tau Analyzer

| 00:50:11 | – 2001 – Дальнобойщик - 1

-01 - Дальнобойщик - 1
02 - Дождь
03 - Это не я имею машину - 1
04 - Дворовая
05 - Мама
06 - Развод
07 - Шофёрская
08 - Ресторанчик на обочине
09 - Пацан
10 - Ночь
11 - Ленка
12 - На посошок

Лог создания рипа

Exact Audio Copy V1.0 beta 4 from 7. December 2014
Отчёт EAC об извлечении, выполненном 22. сентября 2018, 15:10
Гриша Заречный / Дальнобойщик - 1
Дисковод: ASUS DRW-1814BL Adapter: 1 ID: 0
Режим чтения : ДостоверностьИспользование точного потока : ДаОтключение кэша аудио : ДаИспользование указателей C2 : Нет
Коррекция смещения при чтении : 6Способность читать области Lead-in и Lead-out : НетЗаполнение пропущенных сэмплов тишиной : ДаУдаление блоков с тишиной в начале и конце : НетПри вычислениях CRC использовались нулевые сэмплы : ДаИнтерфейс : Встроенный Win32-интерфейс для Win NT/2000
Выходной формат : Пользовательский кодировщикВыбранный битрейт : 128 kBit/sКачество : ВысокийДобавление ID3-тега : НетУтилита сжатия : C:\Program Files\Exact Audio Copy\Flac\flac.exeДополнительные параметры : -V -8 -T "Date=%year%" -T "Genre=%genre%" %source%
TOC извлечённого CD
Трек | Старт | Длительность | Начальный сектор | Конечный сектор --------------------------------------------------------------------- 1 | 0:00.00 | 4:19.69 | 0 | 19493 2 | 4:19.69 | 3:58.19 | 19494 | 37362 3 | 8:18.13 | 3:23.08 | 37363 | 52595 4 | 11:41.21 | 4:01.66 | 52596 | 70736 5 | 15:43.12 | 4:16.04 | 70737 | 89940 6 | 19:59.16 | 4:55.52 | 89941 | 112117 7 | 24:54.68 | 5:18.70 | 112118 | 136037 8 | 30:13.63 | 3:17.23 | 136038 | 150835 9 | 33:31.11 | 4:46.74 | 150836 | 172359 10 | 38:18.10 | 4:16.44 | 172360 | 191603 11 | 42:34.54 | 4:19.20 | 191604 | 211048 12 | 46:53.74 | 3:17.04 | 211049 | 225827
Характеристики диапазона извлечения и сообщения об ошибках
Выбранный диапазон
Имя файла E:\shansonchik\Гриша Заречный - Дальнобойщик - 1.wav
Пиковый уровень 98.8 % Скорость извлечения 8.1 X Качество диапазона 100.0 % CRC теста AE1194CC CRC копии AE1194CC Копирование... OK
Ошибок не произошло
Конец отчёта
==== Контрольная сумма отчёта E147BB84FA2E344DBF05FEDD7DD4EE2AFFBB13FB9D333B3CA7462A621179081D ====

Tau Analyzer

| 00:54:46 | – 2002 – Дальнобойщик - 2

-01 - Сколько разных трасс
02 - Это не я имею машину - 2
03 - Не можешь... не мучай...
04 - С другой стороны
05 - Шофёрская жена
06 - Шофёрская история
07 - Саксофон (feat. Инна Антошкина)
08 - Таксист
09 - Обезьянник
10 - Мальчишка
11 - Автосервис
12 - Воспоминания
13 - Старые дворы
14 - Заводи-ка татарина

Лог создания рипа

Exact Audio Copy V1.0 beta 4 from 7. December 2014
Отчёт EAC об извлечении, выполненном 22. сентября 2018, 15:27
Гриша Заречный / Дальнобойщик - 2
Дисковод: ASUS DRW-1814BL Adapter: 1 ID: 0
Режим чтения : ДостоверностьИспользование точного потока : ДаОтключение кэша аудио : ДаИспользование указателей C2 : Нет
Коррекция смещения при чтении : 6Способность читать области Lead-in и Lead-out : НетЗаполнение пропущенных сэмплов тишиной : ДаУдаление блоков с тишиной в начале и конце : НетПри вычислениях CRC использовались нулевые сэмплы : ДаИнтерфейс : Встроенный Win32-интерфейс для Win NT/2000
Выходной формат : Пользовательский кодировщикВыбранный битрейт : 128 kBit/sКачество : ВысокийДобавление ID3-тега : НетУтилита сжатия : C:\Program Files\Exact Audio Copy\Flac\flac.exeДополнительные параметры : -V -8 -T "Date=%year%" -T "Genre=%genre%" %source%
TOC извлечённого CD
Трек | Старт | Длительность | Начальный сектор | Конечный сектор --------------------------------------------------------------------- 1 | 0:00.00 | 3:50.54 | 0 | 17303 2 | 3:50.54 | 3:19.55 | 17304 | 32283 3 | 7:10.34 | 2:55.41 | 32284 | 45449 4 | 10:06.00 | 3:31.03 | 45450 | 61277 5 | 13:37.03 | 4:48.28 | 61278 | 82905 6 | 18:25.31 | 4:01.09 | 82906 | 100989 7 | 22:26.40 | 4:54.47 | 100990 | 123086 8 | 27:21.12 | 3:21.52 | 123087 | 138213 9 | 30:42.64 | 4:04.59 | 138214 | 156572 10 | 34:47.48 | 3:55.67 | 156573 | 174264 11 | 38:43.40 | 3:57.59 | 174265 | 192098 12 | 42:41.24 | 3:55.49 | 192099 | 209772 13 | 46:36.73 | 3:45.43 | 209773 | 226690 14 | 50:22.41 | 4:23.66 | 226691 | 246481
Характеристики диапазона извлечения и сообщения об ошибках
Выбранный диапазон
Имя файла E:\shansonchik\Гриша Заречный - Дальнобойщик - 2.wav
Пиковый уровень 98.8 % Скорость извлечения 8.5 X Качество диапазона 100.0 % CRC теста 79FEC693 CRC копии 79FEC693 Копирование... OK
Ошибок не произошло
Конец отчёта
==== Контрольная сумма отчёта 1BBF73E29AE33E9BD6ECDDC3E5D6F353C7FE599DCBE2E72E03306AAF9B4C1421 ====

Tau Analyzer

| 00:47:33 | – 2002 – Дальнобойщик - 3

-01 - Соседи
02 - Снег
03 - Девушка за рулём
04 - Застольная
05 - Подъезд
06 - Бомж
07 - Водила
08 - Ноль
09 - Шансонье - 1
10 - Ростовская-хулиганская
11 - Разговор с сыном
12 - Доброго пути

Лог создания рипа

Exact Audio Copy V1.0 beta 4 from 7. December 2014
Отчёт EAC об извлечении, выполненном 22. сентября 2018, 15:41
Гриша Заречный / Дальнобойщик - 3
Дисковод: ASUS DRW-1814BL Adapter: 1 ID: 0
Режим чтения : ДостоверностьИспользование точного потока : ДаОтключение кэша аудио : ДаИспользование указателей C2 : Нет
Коррекция смещения при чтении : 6Способность читать области Lead-in и Lead-out : НетЗаполнение пропущенных сэмплов тишиной : ДаУдаление блоков с тишиной в начале и конце : НетПри вычислениях CRC использовались нулевые сэмплы : ДаИнтерфейс : Встроенный Win32-интерфейс для Win NT/2000
Выходной формат : Пользовательский кодировщикВыбранный битрейт : 128 kBit/sКачество : ВысокийДобавление ID3-тега : НетУтилита сжатия : C:\Program Files\Exact Audio Copy\Flac\flac.exeДополнительные параметры : -V -8 -T "Date=%year%" -T "Genre=%genre%" %source%
TOC извлечённого CD
Трек | Старт | Длительность | Начальный сектор | Конечный сектор --------------------------------------------------------------------- 1 | 0:00.00 | 3:53.64 | 0 | 17538 2 | 3:53.64 | 5:19.06 | 17539 | 41469 3 | 9:12.70 | 4:41.09 | 41470 | 62553 4 | 13:54.04 | 3:58.52 | 62554 | 80455 5 | 17:52.56 | 3:04.07 | 80456 | 94262 6 | 20:56.63 | 2:57.00 | 94263 | 107537 7 | 23:53.63 | 4:04.37 | 107538 | 125874 8 | 27:58.25 | 4:25.50 | 125875 | 145799 9 | 32:24.00 | 3:19.63 | 145800 | 160787 10 | 35:43.63 | 3:21.28 | 160788 | 175890 11 | 39:05.16 | 4:22.52 | 175891 | 195592 12 | 43:27.68 | 4:05.32 | 195593 | 213999
Характеристики диапазона извлечения и сообщения об ошибках
Выбранный диапазон
Имя файла E:\shansonchik\Гриша Заречный - Дальнобойщик - 3.wav
Пиковый уровень 99.8 % Скорость извлечения 8.1 X Качество диапазона 100.0 % CRC теста 9D4DDF4C CRC копии 9D4DDF4C Копирование... OK
Ошибок не произошло
Конец отчёта
==== Контрольная сумма отчёта 75CDF46CCF34E5F7AF779CEE63F12BDE0649EB5A42C37991E24BE607EB52DDC1 ====

Tau Analyzer

| 00:57:01 | – 2004 – А я давлю на газ!

-01 - Долюшка
02 - Королева
03 - Маршрутка - 1
04 - Зодиак (feat. Алла Пугачёва)
05 - Море, чайки
06 - Лохопоп
07 - Слезинка
08 - Последний рейс
09 - Капает дождь
10 - А я давлю на газ!
11 - Лабухам посвящается
12 - Я приеду
13 - Слезинка (караоке-версия)
14 - Лабухам посвящается (караоке-версия)
15 - Зодиак (караоке-версия)

Лог создания рипа

Exact Audio Copy V1.0 beta 4 from 7. December 2014
Отчёт EAC об извлечении, выполненном 22. сентября 2018, 15:57
Гриша Заречный / А я давлю на газ!
Дисковод: ASUS DRW-1814BL Adapter: 1 ID: 0
Режим чтения : ДостоверностьИспользование точного потока : ДаОтключение кэша аудио : ДаИспользование указателей C2 : Нет
Коррекция смещения при чтении : 6Способность читать области Lead-in и Lead-out : НетЗаполнение пропущенных сэмплов тишиной : ДаУдаление блоков с тишиной в начале и конце : НетПри вычислениях CRC использовались нулевые сэмплы : ДаИнтерфейс : Встроенный Win32-интерфейс для Win NT/2000
Выходной формат : Пользовательский кодировщикВыбранный битрейт : 128 kBit/sКачество : ВысокийДобавление ID3-тега : НетУтилита сжатия : C:\Program Files\Exact Audio Copy\Flac\flac.exeДополнительные параметры : -V -8 -T "Date=%year%" -T "Genre=%genre%" %source%
TOC извлечённого CD
Трек | Старт | Длительность | Начальный сектор | Конечный сектор --------------------------------------------------------------------- 1 | 0:00.00 | 3:12.55 | 0 | 14454 2 | 3:12.55 | 3:54.46 | 14455 | 32050 3 | 7:07.26 | 3:38.54 | 32051 | 48454 4 | 10:46.05 | 4:52.14 | 48455 | 70368 5 | 15:38.19 | 3:52.00 | 70369 | 87768 6 | 19:30.19 | 2:50.40 | 87769 | 100558 7 | 22:20.59 | 4:09.48 | 100559 | 119281 8 | 26:30.32 | 3:50.50 | 119282 | 136581 9 | 30:21.07 | 3:49.51 | 136582 | 153807 10 | 34:10.58 | 2:56.12 | 153808 | 167019 11 | 37:06.70 | 3:26.33 | 167020 | 182502 12 | 40:33.28 | 4:02.07 | 182503 | 200659 13 | 44:35.35 | 4:09.48 | 200660 | 219382 14 | 48:45.08 | 3:25.69 | 219383 | 234826 15 | 52:11.02 | 4:50.14 | 234827 | 256590
Характеристики диапазона извлечения и сообщения об ошибках
Выбранный диапазон
Имя файла E:\shansonchik\Гриша Заречный - А я давлю на газ!.wav
Пиковый уровень 100.0 % Скорость извлечения 8.9 X Качество диапазона 100.0 % CRC теста FDBA40C5 CRC копии FDBA40C5 Копирование... OK
Ошибок не произошло
Конец отчёта
==== Контрольная сумма отчёта 29764754A50A29FD819A90E06298399F8263BD2981FCF6075C7C8C92EFD25C7E ====

Tau Analyzer

| 00:50:28 | – 2005 – Не летай!

-01 - Не летай!
02 - Кардан
03 - Но не я
04 - Маршрутка - 2
05 - Собачий блюз
06 - Шансонье - 2
07 - Ты прости меня
08 - Дальнобойщик - 2
09 - Лохотрон
10 - Колыбельная (посвящается Кате Жовмер)
11 - Не привыкать
12 - Ветеран
13 - Кардан (караоке-версия)
14 - Не летай! (караоке-версия)

Лог создания рипа

Exact Audio Copy V1.0 beta 4 from 7. December 2014
Отчёт EAC об извлечении, выполненном 22. сентября 2018, 16:22
Гриша Заречный / Не летай!
Дисковод: ASUS DRW-1814BL Adapter: 1 ID: 0
Режим чтения : ДостоверностьИспользование точного потока : ДаОтключение кэша аудио : ДаИспользование указателей C2 : Нет
Коррекция смещения при чтении : 6Способность читать области Lead-in и Lead-out : НетЗаполнение пропущенных сэмплов тишиной : ДаУдаление блоков с тишиной в начале и конце : НетПри вычислениях CRC использовались нулевые сэмплы : ДаИнтерфейс : Встроенный Win32-интерфейс для Win NT/2000
Выходной формат : Пользовательский кодировщикВыбранный битрейт : 128 kBit/sКачество : ВысокийДобавление ID3-тега : НетУтилита сжатия : C:\Program Files\Exact Audio Copy\Flac\flac.exeДополнительные параметры : -V -8 -T "Date=%year%" -T "Genre=%genre%" %source%
TOC извлечённого CD
Трек | Старт | Длительность | Начальный сектор | Конечный сектор --------------------------------------------------------------------- 1 | 0:00.00 | 3:52.59 | 0 | 17458 2 | 3:52.59 | 3:48.45 | 17459 | 34603 3 | 7:41.29 | 3:17.66 | 34604 | 49444 4 | 10:59.20 | 2:42.24 | 49445 | 61618 5 | 13:41.44 | 3:43.39 | 61619 | 78382 6 | 17:25.08 | 2:50.21 | 78383 | 91153 7 | 20:15.29 | 3:57.47 | 91154 | 108975 8 | 24:13.01 | 4:08.20 | 108976 | 127595 9 | 28:21.21 | 3:09.22 | 127596 | 141792 10 | 31:30.43 | 3:43.23 | 141793 | 158540 11 | 35:13.66 | 4:12.70 | 158541 | 177510 12 | 39:26.61 | 3:21.39 | 177511 | 192624 13 | 42:48.25 | 3:47.74 | 192625 | 209723 14 | 46:36.24 | 3:52.17 | 209724 | 227140
Характеристики диапазона извлечения и сообщения об ошибках
Выбранный диапазон
Имя файла E:\shansonchik\Гриша Заречный - Не летай!.wav
Пиковый уровень 98.8 % Скорость извлечения 4.6 X Качество диапазона 100.0 % CRC теста 8EFCCAF0 CRC копии 8EFCCAF0 Копирование... OK
Ошибок не произошло
Конец отчёта
==== Контрольная сумма отчёта 8D6E910B99AC8D0A77F2E950B697F9B09E7D56DF4418D3314C29716C2DCA9D59 ====

Tau Analyzer

| 01:05:27 | – 2006 – Тормоза придумали трусы!

-01 - Тормоза придумали трусы!
02 - Персональщик
03 - Эй, братан!
04 - Столик на двоих (feat. Светлана Астахова)
05 - Жизнь - это драйв!
06 - Военком
07 - Цаветанем (посвящается Алексею Вагаршаковичу Кочаряну)
08 - Джана
09 - Пофигистический рок-н-ролл
10 - Какой ты всё-таки...
11 - Старшина
12 - Забухаю
13 - Дорога домой (feat. Светлана Астахова)
14 - Новый год (посвящается Кате Жовмер)
15 - Цаветанем (караоке-версия)
16 - Джана (караоке-версия)
17 - Столик на двоих (караоке-версия)

Лог создания рипа

Exact Audio Copy V1.0 beta 4 from 7. December 2014
Отчёт EAC об извлечении, выполненном 22. сентября 2018, 16:51
Гриша Заречный / Тормоза придумали трусы!
Дисковод: ASUS DRW-1814BL Adapter: 1 ID: 0
Режим чтения : ДостоверностьИспользование точного потока : ДаОтключение кэша аудио : ДаИспользование указателей C2 : Нет
Коррекция смещения при чтении : 6Способность читать области Lead-in и Lead-out : НетЗаполнение пропущенных сэмплов тишиной : ДаУдаление блоков с тишиной в начале и конце : НетПри вычислениях CRC использовались нулевые сэмплы : ДаИнтерфейс : Встроенный Win32-интерфейс для Win NT/2000
Выходной формат : Пользовательский кодировщикВыбранный битрейт : 128 kBit/sКачество : ВысокийДобавление ID3-тега : НетУтилита сжатия : C:\Program Files\Exact Audio Copy\Flac\flac.exeДополнительные параметры : -V -8 -T "Date=%year%" -T "Genre=%genre%" %source%
TOC извлечённого CD
Трек | Старт | Длительность | Начальный сектор | Конечный сектор --------------------------------------------------------------------- 1 | 0:00.00 | 3:47.05 | 0 | 17029 2 | 3:47.05 | 3:54.51 | 17030 | 34630 3 | 7:41.56 | 2:36.11 | 34631 | 46341 4 | 10:17.67 | 4:38.58 | 46342 | 67249 5 | 14:56.50 | 3:28.57 | 67250 | 82906 6 | 18:25.32 | 4:12.28 | 82907 | 101834 7 | 22:37.60 | 4:33.44 | 101835 | 122353 8 | 27:11.29 | 3:31.67 | 122354 | 138245 9 | 30:43.21 | 2:47.50 | 138246 | 150820 10 | 33:30.71 | 3:39.22 | 150821 | 167267 11 | 37:10.18 | 3:15.12 | 167268 | 181904 12 | 40:25.30 | 3:00.18 | 181905 | 195422 13 | 43:25.48 | 4:25.42 | 195423 | 215339 14 | 47:51.15 | 4:50.37 | 215340 | 237126 15 | 52:41.52 | 4:35.52 | 237127 | 257803 16 | 57:17.29 | 3:32.53 | 257804 | 273756 17 | 60:50.07 | 4:37.23 | 273757 | 294554
Характеристики диапазона извлечения и сообщения об ошибках
Выбранный диапазон
Имя файла E:\shansonchik\Гриша Заречный - Тормоза придумали трусы!.wav
Пиковый уровень 98.0 % Скорость извлечения 4.9 X Качество диапазона 100.0 % CRC теста E79471A7 CRC копии E79471A7 Копирование... OK
Ошибок не произошло
Конец отчёта
==== Контрольная сумма отчёта 9866D06471D38D91132A15CE620139487F3EFC4B71B2F2C502AFCAF450044E1D ====

Tau Analyzer

| 00:54:41 | – 2007 – Шоферской роман

-01 - Такой вот коленкор
02 - Это не я имею машину - 3
03 - Шоферской роман (feat. Светлана Астахова)
04 - 8-ое чудо (посвящается Оксане Исаевой, автомобилисту-психологу)
05 - Пробки
06 - Бомбилой не рождаются
07 - Нива
08 - Центури (посвящается брату Виктору Ерёмину)
09 - Шофёрское сердце
10 - Перегонщик
11 - На двойной
12 - Скорость 90
13 - Я вернусь
14 - Она может...
15 - Казачья

Лог создания рипа

Exact Audio Copy V1.0 beta 4 from 7. December 2014
Отчёт EAC об извлечении, выполненном 22. сентября 2018, 17:17
Григорий Заречный / Шоферской роман
Дисковод: ASUS DRW-1814BL Adapter: 1 ID: 0
Режим чтения : ДостоверностьИспользование точного потока : ДаОтключение кэша аудио : ДаИспользование указателей C2 : Нет
Коррекция смещения при чтении : 6Способность читать области Lead-in и Lead-out : НетЗаполнение пропущенных сэмплов тишиной : ДаУдаление блоков с тишиной в начале и конце : НетПри вычислениях CRC использовались нулевые сэмплы : ДаИнтерфейс : Встроенный Win32-интерфейс для Win NT/2000
Выходной формат : Пользовательский кодировщикВыбранный битрейт : 128 kBit/sКачество : ВысокийДобавление ID3-тега : НетУтилита сжатия : C:\Program Files\Exact Audio Copy\Flac\flac.exeДополнительные параметры : -V -8 -T "Date=%year%" -T "Genre=%genre%" %source%
TOC извлечённого CD
Трек | Старт | Длительность | Начальный сектор | Конечный сектор --------------------------------------------------------------------- 1 | 0:00.00 | 4:18.11 | 0 | 19360 2 | 4:18.11 | 3:04.24 | 19361 | 33184 3 | 7:22.35 | 4:06.40 | 33185 | 51674 4 | 11:29.00 | 3:23.55 | 51675 | 66954 5 | 14:52.55 | 3:00.15 | 66955 | 80469 6 | 17:52.70 | 3:21.03 | 80470 | 95547 7 | 21:13.73 | 2:49.00 | 95548 | 108222 8 | 24:02.73 | 3:43.65 | 108223 | 125012 9 | 27:46.63 | 4:11.18 | 125013 | 143855 10 | 31:58.06 | 3:30.15 | 143856 | 159620 11 | 35:28.21 | 2:50.52 | 159621 | 172422 12 | 38:18.73 | 3:53.60 | 172423 | 189957 13 | 42:12.58 | 3:45.45 | 189958 | 206877 14 | 45:58.28 | 4:44.39 | 206878 | 228216 15 | 50:42.67 | 3:58.72 | 228217 | 246138
Характеристики диапазона извлечения и сообщения об ошибках
Выбранный диапазон
Имя файла E:\shansonchik\Григорий Заречный - Шоферской роман.wav
Пиковый уровень 98.2 % Скорость извлечения 4.7 X Качество диапазона 100.0 % CRC теста AED42E6A CRC копии AED42E6A Копирование... OK
Ошибок не произошло
Конец отчёта
==== Контрольная сумма отчёта 4D051A8E3CF13DC9A818F142AB980BA32CE9B2B57E8E24415C03EFBF26FA1874 ====

Tau Analyzer

| 01:12:25 | – 2008 – Голуби над Ростовом

-01 - Короли
02 - Инспектору ГАИ
03 - Трын-трава
04 - Друг
05 - Ростовчанки
06 - Фонари
07 - По кабакам
08 - База отдыха
09 - Баку
10 - Земляки
11 - Я скучаю
12 - Бомбила
13 - Песня таксиста-гастарбайтера
14 - Сынок
15 - Оловянный солдатик
16 - 10-й «А»
17 - Центури (посвящается брату Виктору Ерёмину)
18 - Голуби над Ростовом
19 - Короли (десять лет спустя)

Лог создания рипа

Exact Audio Copy V1.0 beta 4 from 7. December 2014
Отчёт EAC об извлечении, выполненном 22. сентября 2018, 17:37
Григорий Заречный / Голуби над Ростовом
Дисковод: ASUS DRW-1814BL Adapter: 1 ID: 0
Режим чтения : ДостоверностьИспользование точного потока : ДаОтключение кэша аудио : ДаИспользование указателей C2 : Нет
Коррекция смещения при чтении : 6Способность читать области Lead-in и Lead-out : НетЗаполнение пропущенных сэмплов тишиной : ДаУдаление блоков с тишиной в начале и конце : НетПри вычислениях CRC использовались нулевые сэмплы : ДаИнтерфейс : Встроенный Win32-интерфейс для Win NT/2000
Выходной формат : Пользовательский кодировщикВыбранный битрейт : 128 kBit/sКачество : ВысокийДобавление ID3-тега : НетУтилита сжатия : C:\Program Files\Exact Audio Copy\Flac\flac.exeДополнительные параметры : -V -8 -T "Date=%year%" -T "Genre=%genre%" %source%
TOC извлечённого CD
Трек | Старт | Длительность | Начальный сектор | Конечный сектор --------------------------------------------------------------------- 1 | 0:00.00 | 4:08.02 | 0 | 18601 2 | 4:08.02 | 3:18.43 | 18602 | 33494 3 | 7:26.45 | 2:29.22 | 33495 | 44691 4 | 9:55.67 | 4:34.50 | 44692 | 65291 5 | 14:30.42 | 2:50.62 | 65292 | 78103 6 | 17:21.29 | 3:53.17 | 78104 | 95595 7 | 21:14.46 | 3:52.42 | 95596 | 113037 8 | 25:07.13 | 3:23.14 | 113038 | 128276 9 | 28:30.27 | 6:29.73 | 128277 | 157524 10 | 35:00.25 | 3:55.29 | 157525 | 175178 11 | 38:55.54 | 3:31.52 | 175179 | 191055 12 | 42:27.31 | 3:53.60 | 191056 | 208590 13 | 46:21.16 | 3:06.43 | 208591 | 222583 14 | 49:27.59 | 4:47.51 | 222584 | 244159 15 | 54:15.35 | 3:08.70 | 244160 | 258329 16 | 57:24.30 | 4:23.74 | 258330 | 278128 17 | 61:48.29 | 3:44.04 | 278129 | 294932 18 | 65:32.33 | 3:40.69 | 294933 | 311501 19 | 69:13.27 | 3:11.68 | 311502 | 325894
Характеристики диапазона извлечения и сообщения об ошибках
Выбранный диапазон
Имя файла E:\shansonchik\Григорий Заречный - Голуби над Ростовом.wav
Пиковый уровень 98.9 % Скорость извлечения 8.4 X Качество диапазона 100.0 % CRC теста C6A1938A CRC копии C6A1938A Копирование... OK
Ошибок не произошло
Конец отчёта
==== Контрольная сумма отчёта 5C7C34DE72632D617C93AFAE1A0A6DFDE8BBBCB2A7BAB222A34DEEBA4E6659AA ====

Tau Analyzer

-Сборники-

| 01:16:45 | – 2004 – Best

-01 - Дальнобойщик - 1
02 - Это не я имею машину - 1
03 - Это не я имею машину - 2
04 - Маршрутка - 1
05 - Таксист
06 - Дворовая
07 - Последний рейс
08 - Застольная
09 - Девушка за рулём
10 - Водила
11 - Доброго пути
12 - Шофёрская
13 - Заводи-ка татарина
14 - Шофёрская история
15 - Автосервис
16 - Соседи
17 - Саксофон (feat. Инна Антошкина)
18 - Шофёрская жена
19 - Ресторанчик на обочине

Лог создания рипа

Exact Audio Copy V1.0 beta 4 from 7. December 2014
Отчёт EAC об извлечении, выполненном 22. сентября 2018, 17:56
Гриша Заречный / Best
Дисковод: ASUS DRW-1814BL Adapter: 1 ID: 0
Режим чтения : ДостоверностьИспользование точного потока : ДаОтключение кэша аудио : ДаИспользование указателей C2 : Нет
Коррекция смещения при чтении : 6Способность читать области Lead-in и Lead-out : НетЗаполнение пропущенных сэмплов тишиной : ДаУдаление блоков с тишиной в начале и конце : НетПри вычислениях CRC использовались нулевые сэмплы : ДаИнтерфейс : Встроенный Win32-интерфейс для Win NT/2000
Выходной формат : Пользовательский кодировщикВыбранный битрейт : 128 kBit/sКачество : ВысокийДобавление ID3-тега : НетУтилита сжатия : C:\Program Files\Exact Audio Copy\Flac\flac.exeДополнительные параметры : -V -8 -T "Date=%year%" -T "Genre=%genre%" %source%
TOC извлечённого CD
Трек | Старт | Длительность | Начальный сектор | Конечный сектор --------------------------------------------------------------------- 1 | 0:00.00 | 4:18.14 | 0 | 19363 2 | 4:18.14 | 3:21.58 | 19364 | 34496 3 | 7:39.72 | 3:18.20 | 34497 | 49366 4 | 10:58.17 | 3:36.35 | 49367 | 65601 5 | 14:34.52 | 3:22.33 | 65602 | 80784 6 | 17:57.10 | 4:00.50 | 80785 | 98834 7 | 21:57.60 | 3:48.18 | 98835 | 115952 8 | 25:46.03 | 3:56.15 | 115953 | 133667 9 | 29:42.18 | 4:39.22 | 133668 | 154614 10 | 34:21.40 | 4:01.51 | 154615 | 172740 11 | 38:23.16 | 4:03.45 | 172741 | 191010 12 | 42:26.61 | 5:17.66 | 191011 | 214851 13 | 47:44.52 | 4:23.04 | 214852 | 234580 14 | 52:07.56 | 3:57.50 | 234581 | 252405 15 | 56:05.31 | 3:55.50 | 252406 | 270080 16 | 60:01.06 | 3:49.45 | 270081 | 287300 17 | 63:50.51 | 4:52.41 | 287301 | 309241 18 | 68:43.17 | 4:47.20 | 309242 | 330786 19 | 73:30.37 | 3:15.29 | 330787 | 345440
Характеристики диапазона извлечения и сообщения об ошибках
Выбранный диапазон
Имя файла E:\shansonchik\Гриша Заречный - Best.wav
Пиковый уровень 95.0 % Скорость извлечения 9.9 X Качество диапазона 100.0 % CRC теста 41B8C08C CRC копии 41B8C08C Копирование... OK
Ошибок не произошло
Конец отчёта
==== Контрольная сумма отчёта B553383B2728FCC201FB84AF920E8B8169794DBF1B7079E06C32E16C815D426C ====

Tau Analyzer

| 01:17:04 | – 2011 – Дорожные истории

-01 - Дальнобойщик - 1
02 - Доброго пути
03 - Скорость 90
04 - Это не я имею машину - 1
05 - Ресторанчик на обочине
06 - Я вернусь
07 - Шофёрская история
08 - Соседи
09 - Тормоза придумали трусы!
10 - Девушка за рулём
11 - Застольная
12 - Ноль
13 - Это не я имею машину - 2
14 - Забухаю
15 - Пацан
16 - Дождь
17 - Дворовая
18 - 8-ое чудо (посвящается Оксане Исаевой, автомобилисту-психологу)
19 - На посошок
20 - Шоферской роман (feat. Светлана Астахова)

Лог создания рипа

Exact Audio Copy V1.0 beta 4 from 7. December 2014
Отчёт EAC об извлечении, выполненном 22. сентября 2018, 18:29
Григорий Заречный / Дорожные истории
Дисковод: ASUS DRW-1814BL Adapter: 1 ID: 0
Режим чтения : ДостоверностьИспользование точного потока : ДаОтключение кэша аудио : ДаИспользование указателей C2 : Нет
Коррекция смещения при чтении : 6Способность читать области Lead-in и Lead-out : НетЗаполнение пропущенных сэмплов тишиной : ДаУдаление блоков с тишиной в начале и конце : НетПри вычислениях CRC использовались нулевые сэмплы : ДаИнтерфейс : Встроенный Win32-интерфейс для Win NT/2000
Выходной формат : Пользовательский кодировщикВыбранный битрейт : 128 kBit/sКачество : ВысокийДобавление ID3-тега : НетУтилита сжатия : C:\Program Files\Exact Audio Copy\Flac\flac.exeДополнительные параметры : -V -8 -T "Date=%year%" -T "Genre=%genre%" %source%
TOC извлечённого CD
Трек | Старт | Длительность | Начальный сектор | Конечный сектор --------------------------------------------------------------------- 1 | 0:00.00 | 4:16.70 | 0 | 19269 2 | 4:16.70 | 4:05.32 | 19270 | 37676 3 | 8:22.27 | 3:51.49 | 37677 | 55050 4 | 12:14.01 | 3:23.08 | 55051 | 70283 5 | 15:37.09 | 3:15.37 | 70284 | 84945 6 | 18:52.46 | 3:43.01 | 84946 | 101671 7 | 22:35.47 | 3:56.73 | 101672 | 119444 8 | 26:32.45 | 3:51.53 | 119445 | 136822 9 | 30:24.23 | 3:47.05 | 136823 | 153852 10 | 34:11.28 | 4:41.09 | 153853 | 174936 11 | 38:52.37 | 3:57.04 | 174937 | 192715 12 | 42:49.41 | 4:25.50 | 192716 | 212640 13 | 47:15.16 | 3:17.67 | 212641 | 227482 14 | 50:33.08 | 2:56.39 | 227483 | 240721 15 | 53:29.47 | 4:46.74 | 240722 | 262245 16 | 58:16.46 | 3:58.19 | 262246 | 280114 17 | 62:14.65 | 4:01.66 | 280115 | 298255 18 | 66:16.56 | 3:23.55 | 298256 | 313535 19 | 69:40.36 | 3:17.04 | 313536 | 328314 20 | 72:57.40 | 4:06.40 | 328315 | 346804
Характеристики диапазона извлечения и сообщения об ошибках
Выбранный диапазон
Имя файла E:\shansonchik\Григорий Заречный - Дорожные истории.wav
Пиковый уровень 98.8 % Скорость извлечения 5.1 X Качество диапазона 99.9 % CRC теста C12279B6 CRC копии C12279B6 Копирование... OK
Ошибок не произошло
Конец отчёта
==== Контрольная сумма отчёта 00078DB1F872D4D2D4B40A9779DCD0587174EC19D291F081465DB7E4ED36416E ====

Tau Analyzer

-


[galltoto.com]_t_5617367.torrent
Торрент: Зарегистрирован ·  [ 2018-09-30 17:11 ] ·  13356c2849ac5b84e594ca3806414f07424c2175

34 KB

Статус: проверено
Скачан: 0 раз
Размер: 4.7 GB
Оценка: 
(Голосов: 0)
Сказали спасибо: 0  Спасибо
Похожие темы
[Профиль]    [ЛС]
Показать сообщения:    
Ответить на тему

Текущее время: Сегодня 13:45

Часовой пояс: GMT + 7



Вы не можете начинать темы
Вы не можете отвечать на сообщения
Вы не можете редактировать свои сообщения
Вы не можете удалять свои сообщения
Вы не можете голосовать в опросах
Вы не можете прикреплять файлы к сообщениям
Вы можете скачивать файлы


DesignaKnit 8 FR | FS P enger 2015 | Strykerlicious