(Шансон) [CD] Группа Американка - Медвежонок - 2002, FLAC (image+.cue), lossless

Ответить на тему
Статистика раздачи [Обновить пиров]
Размер:  421 MB   |    Зарегистрирован:  3 месяца 25 дней   |    Скачан:  0 раз

Полного источника не было: Никогда

 
   
 
 
 
Автор Сообщение

galltoto.com

Создавать темы 23-Сен-2018 18:34

[Цитировать]

Группа Американка / Медвежонок
Жанр: Шансон
Носитель: CD
Страна-производитель диска (релиза): Россия
Год издания: 2002
Издатель (лейбл): Русский Компакт Диск
Номер по каталогу: RCD 50211
Страна исполнителя (группы): Россия
Аудиокодек: FLAC (*.flac)
Тип рипа: image+.cue
Битрейт аудио: lossless
Продолжительность: 01:18:26
Источник (релизер): Свой рип
Наличие сканов в содержимом раздачи: да
Треклист:
01. Централка 5:16
02. Котенок и паровоз 2:49
03. Тишина немая, только ветер свищет 7:05
04. Океан 3:49
05. А я маленькая детка 1:10
06. Денежки 4:00
07. Слышно щелканье пробок от пива 3:42
08. Я родился на Волге 4:19
09. Бомжихи 3:57
10. Однажды жарким летом 2:11
11. Костыль 3:03
12. Раскуси-ка бабушка 3:35
13. Гоп-стоп, Соня 4:21
14. За окном кудрявая белая акация 3:16
15. Лев Николаевич Толстой 3:27
16. Абидно, да? 4:38
17. Коленками назад 2:22
18. Бацилла и чума 3:48
19. Женская зона 2:43
20. Медвежонок 8:08

Лог создания рипа

Exact Audio Copy V1.3 from 2. September 2016
Отчёт EAC об извлечении, выполненном 10. сентября 2018, 16:19
Американка / Медвежонок
Дисковод: ASUS DRW-24F1MT Adapter: 1 ID: 0
Режим чтения : ДостоверностьИспользование точного потока : ДаОтключение кэша аудио : ДаИспользование указателей C2 : Нет
Коррекция смещения при чтении : 6Способность читать области Lead-in и Lead-out : НетЗаполнение пропущенных сэмплов тишиной : ДаУдаление блоков с тишиной в начале и конце : НетПри вычислениях CRC использовались нулевые сэмплы : ДаИнтерфейс : Встроенный Win32-интерфейс для Win NT/2000
Выходной формат : Пользовательский кодировщикВыбранный битрейт : 128 kBit/sКачество : ВысокийДобавление ID3-тега : НетУтилита сжатия : C:\Program Files (x86)\Exact Audio Copy\Flac\flac.exeДополнительные параметры : -V -8 -T "Date=%year%" -T "Genre=%genre%" %source%
TOC извлечённого CD
Трек | Старт | Длительность | Начальный сектор | Конечный сектор --------------------------------------------------------------------- 1 | 0:00.00 | 5:18.45 | 0 | 23894 2 | 5:18.45 | 2:51.19 | 23895 | 36738 3 | 8:09.64 | 7:07.31 | 36739 | 68794 4 | 15:17.20 | 3:51.73 | 68795 | 86192 5 | 19:09.18 | 1:12.62 | 86193 | 91654 6 | 20:22.05 | 4:02.05 | 91655 | 109809 7 | 24:24.10 | 3:44.47 | 109810 | 126656 8 | 28:08.57 | 4:21.00 | 126657 | 146231 9 | 32:29.57 | 3:59.71 | 146232 | 164227 10 | 36:29.53 | 2:13.32 | 164228 | 174234 11 | 38:43.10 | 3:05.03 | 174235 | 188112 12 | 41:48.13 | 3:37.74 | 188113 | 204461 13 | 45:26.12 | 4:23.01 | 204462 | 224187 14 | 49:49.13 | 3:18.17 | 224188 | 239054 15 | 53:07.30 | 3:29.46 | 239055 | 254775 16 | 56:37.01 | 4:40.00 | 254776 | 275775 17 | 61:17.01 | 2:24.34 | 275776 | 286609 18 | 63:41.35 | 3:50.63 | 286610 | 303922 19 | 67:32.23 | 2:45.14 | 303923 | 316311 20 | 70:17.37 | 8:08.17 | 316312 | 352928
Характеристики диапазона извлечения и сообщения об ошибках
Выбранный диапазон
Имя файла E:\Раздачи\Папки\группа Американка - Медвежонок\Американка - Медвежонок.wav
Пиковый уровень 89.1 % Скорость извлечения 5.1 X Качество диапазона 100.0 % CRC теста E4D2A747 CRC копии E4D2A747 Копирование... OK
Ошибок не произошло
AccurateRip: сводка
Трек 1 отсутствует в базе данныхТрек 2 отсутствует в базе данныхТрек 3 отсутствует в базе данныхТрек 4 отсутствует в базе данныхТрек 5 отсутствует в базе данныхТрек 6 отсутствует в базе данныхТрек 7 отсутствует в базе данныхТрек 8 отсутствует в базе данныхТрек 9 отсутствует в базе данныхТрек 10 отсутствует в базе данныхТрек 11 отсутствует в базе данныхТрек 12 отсутствует в базе данныхТрек 13 отсутствует в базе данныхТрек 14 отсутствует в базе данныхТрек 15 отсутствует в базе данныхТрек 16 отсутствует в базе данныхТрек 17 отсутствует в базе данныхТрек 18 отсутствует в базе данныхТрек 19 отсутствует в базе данныхТрек 20 отсутствует в базе данных
Ни одного трека нет в базе AccurateRip
Конец отчёта
==== Контрольная сумма отчёта E754F9140EFD22A35381A1B09A9B56FB50D9B892F7FEA38F83B3F0CDEDE758E1 ====

Содержание индексной карты (.CUE)

REM GENRE ChansonREM DATE 2002REM DISCID 27126114REM COMMENT "ExactAudioCopy v1.3"PERFORMER "Американка"TITLE "Медвежонок"REM COMPOSER ""FILE "Американка - Медвежонок.flac" WAVE TRACK 01 AUDIO TITLE "Централка" PERFORMER "Американка" REM COMPOSER "" INDEX 01 00:00:00 TRACK 02 AUDIO TITLE "Котёнок и паровоз" PERFORMER "Американка" REM COMPOSER "" INDEX 00 05:16:45 INDEX 01 05:18:45 TRACK 03 AUDIO TITLE "Тишина немая, только ветер свищет" PERFORMER "Американка" REM COMPOSER "" INDEX 00 08:07:64 INDEX 01 08:09:64 TRACK 04 AUDIO TITLE "Океан" PERFORMER "Американка" REM COMPOSER "" INDEX 00 15:15:20 INDEX 01 15:17:20 TRACK 05 AUDIO TITLE "А я маленькая детка" PERFORMER "Американка" REM COMPOSER "" INDEX 00 19:07:18 INDEX 01 19:09:18 TRACK 06 AUDIO TITLE "Денежки" PERFORMER "Американка" REM COMPOSER "" INDEX 00 20:20:05 INDEX 01 20:22:05 TRACK 07 AUDIO TITLE "Слышно щёлканье пробок от пива" PERFORMER "Американка" REM COMPOSER "" INDEX 00 24:22:10 INDEX 01 24:24:10 TRACK 08 AUDIO TITLE "Я родился на Волге" PERFORMER "Американка" REM COMPOSER "" INDEX 00 28:06:57 INDEX 01 28:08:57 TRACK 09 AUDIO TITLE "Бомжихи" PERFORMER "Американка" REM COMPOSER "" INDEX 00 32:27:57 INDEX 01 32:29:57 TRACK 10 AUDIO TITLE "Однажды жарким летом" PERFORMER "Американка" REM COMPOSER "" INDEX 00 36:27:53 INDEX 01 36:29:53 TRACK 11 AUDIO TITLE "Костыль" PERFORMER "Американка" REM COMPOSER "" INDEX 00 38:41:10 INDEX 01 38:43:10 TRACK 12 AUDIO TITLE "Раскуси-ка, бабушка" PERFORMER "Американка" REM COMPOSER "" INDEX 00 41:46:13 INDEX 01 41:48:13 TRACK 13 AUDIO TITLE "Гоп-стоп, Зоя" PERFORMER "Американка" REM COMPOSER "" INDEX 00 45:24:12 INDEX 01 45:26:12 TRACK 14 AUDIO TITLE "За окном кудрявая белая акация" PERFORMER "Американка" REM COMPOSER "" INDEX 00 49:47:13 INDEX 01 49:49:13 TRACK 15 AUDIO TITLE "Лев Николаич Толстой" PERFORMER "Американка" REM COMPOSER "" INDEX 00 53:05:30 INDEX 01 53:07:30 TRACK 16 AUDIO TITLE "Абидно, да?" PERFORMER "Американка" REM COMPOSER "" INDEX 00 56:35:01 INDEX 01 56:37:01 TRACK 17 AUDIO TITLE "Коленками назад" PERFORMER "Американка" REM COMPOSER "" INDEX 00 61:15:01 INDEX 01 61:17:01 TRACK 18 AUDIO TITLE "Бацилла и Чума" PERFORMER "Американка" REM COMPOSER "" INDEX 00 63:39:35 INDEX 01 63:41:35 TRACK 19 AUDIO TITLE "Женская зона" PERFORMER "Американка" REM COMPOSER "" INDEX 00 67:30:23 INDEX 01 67:32:23 TRACK 20 AUDIO TITLE "Медвежонок" PERFORMER "Американка" REM COMPOSER "" INDEX 00 70:15:37 INDEX 01 70:17:37

Лог проверки качества

-----------------------
DON'T MODIFY THIS FILE
-----------------------
PERFORMER: auCDtect Task Manager, ver. 1.6.0 RC1 build 1.6.0.1Copyright (c) 2008-2010 y-soft. All rights reservedhttp://y-soft.org
ANALYZER: auCDtect: CD records authenticity detector, version 0.8.2Copyright (c) 2004 Oleg Berngardt. All rights reserved.Copyright (c) 2004 Alexander Djourik. All rights reserved.
FILE: Американка - Медвежонок.flac Size: 419626885 Hash: 590A5BC122170A13C25B6CE355D08496 Accuracy: -m0 Conclusion: CDDA 100% Signature: D16EFD4A34F003D3EF8D9A33037ADCE6799B6D9D


[galltoto.com]_t_5613017.torrent
Торрент: Зарегистрирован ·  [ 2018-09-23 18:31 ] ·  50f340591db5082c902ce23553064833ff2e85ae

17 KB

Статус: проверено
Скачан: 0 раз
Размер: 421 MB
Оценка: 
(Голосов: 0)
Сказали спасибо: 0  Спасибо
Похожие темы
[Профиль]    [ЛС]
Показать сообщения:    
Ответить на тему

Текущее время: Сегодня 13:48

Часовой пояс: GMT + 7



Вы не можете начинать темы
Вы не можете отвечать на сообщения
Вы не можете редактировать свои сообщения
Вы не можете удалять свои сообщения
Вы не можете голосовать в опросах
Вы не можете прикреплять файлы к сообщениям
Вы можете скачивать файлы


Requiem for a Dream | Economics for Business - 3717 Words | JF247 WKT Nouveau Scintillant Fleur Geometic Forme Pendentif Avec Haute Qualité CZ Micro Pave Pour Bijoux De Mode De Décision Pendentif