(Шансон) [CD] Игорь Иванов-Запольский - Судьба - 2002, FLAC (image+.cue), lossless

Ответить на тему
Статистика раздачи [Обновить пиров]
Размер:  466 MB   |    Зарегистрирован:  3 месяца 25 дней   |    Скачан:  0 раз

Полного источника не было: Никогда

 
   
 
 
 
Автор Сообщение

galltoto.com

Создавать темы 23-Сен-2018 18:34

[Цитировать]

Игорь Иванов-Запольский / Судьба
Жанр: Шансон
Носитель: CD
Страна-производитель диска (релиза): Россия
Год издания: 2002
Издатель (лейбл): Русский Компакт Диск
Номер по каталогу: RCD 50212
Страна исполнителя (группы): Россия
Аудиокодек: FLAC (*.flac)
Тип рипа: image+.cue
Битрейт аудио: lossless
Продолжительность: 01:09:03
Источник (релизер): Свой рип
Наличие сканов в содержимом раздачи: да
Треклист:
01. Судьба 3:14
02. Пиковая дама ( Два туза ) 3:05
03. Отец мой пекарь, а мать воровка 2:19
04. Колодники 4:09
05. Семнадцать с половиною 2:12
06. Я о тебе пою, пойми печаль мою 4:18
07. Любка 4:48
08. Губит людей не пиво 2:56
09. Кыш вы, шкеты,под вагоны 3:47
10. Жил-был на Подоле 6:11
11. Послушай, моя красавица 1:18
12. Налей-ка рюмку, Роза 3:24
13. Три гудочка 6:20
14. Разлуки 2:28
15. Я живу близ Охотского моря 2:32
16. Как-то по проспекту ( Манька ) 2:49
17. Как на кладбище Митрофановском 5:15
18. Цилиндром на солнце сверкая 2:03
19. Девушка с распущенной косой ( Иволга ) 3:25
20. Есть в Красноярске тюрьма большая 2:22

Лог создания рипа

Exact Audio Copy V1.3 from 2. September 2016
Отчёт EAC об извлечении, выполненном 13. сентября 2018, 20:34
Игорь Иванов-Запольский / Судьба
Дисковод: ASUS DRW-24F1MT Adapter: 1 ID: 0
Режим чтения : ДостоверностьИспользование точного потока : ДаОтключение кэша аудио : ДаИспользование указателей C2 : Нет
Коррекция смещения при чтении : 6Способность читать области Lead-in и Lead-out : НетЗаполнение пропущенных сэмплов тишиной : ДаУдаление блоков с тишиной в начале и конце : НетПри вычислениях CRC использовались нулевые сэмплы : ДаИнтерфейс : Встроенный Win32-интерфейс для Win NT/2000
Выходной формат : Пользовательский кодировщикВыбранный битрейт : 128 kBit/sКачество : ВысокийДобавление ID3-тега : НетУтилита сжатия : C:\Program Files (x86)\Exact Audio Copy\Flac\flac.exeДополнительные параметры : -V -8 -T "Date=%year%" -T "Genre=%genre%" %source%
TOC извлечённого CD
Трек | Старт | Длительность | Начальный сектор | Конечный сектор --------------------------------------------------------------------- 1 | 0:00.00 | 3:14.24 | 0 | 14573 2 | 3:14.24 | 3:05.23 | 14574 | 28471 3 | 6:19.47 | 2:19.13 | 28472 | 38909 4 | 8:38.60 | 4:09.40 | 38910 | 57624 5 | 12:48.25 | 2:12.46 | 57625 | 67570 6 | 15:00.71 | 4:18.27 | 67571 | 86947 7 | 19:19.23 | 4:48.29 | 86948 | 108576 8 | 24:07.52 | 2:56.60 | 108577 | 121836 9 | 27:04.37 | 3:47.01 | 121837 | 138862 10 | 30:51.38 | 6:11.51 | 138863 | 166738 11 | 37:03.14 | 1:18.09 | 166739 | 172597 12 | 38:21.23 | 3:24.53 | 172598 | 187950 13 | 41:46.01 | 6:20.00 | 187951 | 216450 14 | 48:06.01 | 2:28.69 | 216451 | 227619 15 | 50:34.70 | 2:32.73 | 227620 | 239092 16 | 53:07.68 | 2:49.27 | 239093 | 251794 17 | 55:57.20 | 5:15.17 | 251795 | 275436 18 | 61:12.37 | 2:03.50 | 275437 | 284711 19 | 63:16.12 | 3:25.64 | 284712 | 300150 20 | 66:42.01 | 2:20.59 | 300151 | 310709
Характеристики диапазона извлечения и сообщения об ошибках
Выбранный диапазон
Имя файла E:\Раздачи\Папки\Игорь Иванов-Запольский - Судьба\Игорь Иванов-Запольский - Судьба.wav
Пиковый уровень 100.0 % Скорость извлечения 7.1 X Качество диапазона 100.0 % CRC теста 458D414B CRC копии 458D414B Копирование... OK
Ошибок не произошло
AccurateRip: сводка
Трек 1 отсутствует в базе данныхТрек 2 отсутствует в базе данныхТрек 3 отсутствует в базе данныхТрек 4 отсутствует в базе данныхТрек 5 отсутствует в базе данныхТрек 6 отсутствует в базе данныхТрек 7 отсутствует в базе данныхТрек 8 отсутствует в базе данныхТрек 9 отсутствует в базе данныхТрек 10 отсутствует в базе данныхТрек 11 отсутствует в базе данныхТрек 12 отсутствует в базе данныхТрек 13 отсутствует в базе данныхТрек 14 отсутствует в базе данныхТрек 15 отсутствует в базе данныхТрек 16 отсутствует в базе данныхТрек 17 отсутствует в базе данныхТрек 18 отсутствует в базе данныхТрек 19 отсутствует в базе данныхТрек 20 отсутствует в базе данных
Ни одного трека нет в базе AccurateRip
Конец отчёта
==== Контрольная сумма отчёта 0B56DD2D6CE12C9DAAF9EC9B1671282ADD7344B0B371DF2A4F688846238797E4 ====

Содержание индексной карты (.CUE)

REM GENRE ChansonREM DATE 2002REM DISCID 22102E14REM COMMENT "ExactAudioCopy v1.3"PERFORMER "Игорь Иванов-Запольский"TITLE "Судьба"REM COMPOSER ""FILE "Игорь Иванов-Запольский - Судьба.flac" WAVE TRACK 01 AUDIO TITLE "Судьба" PERFORMER "Игорь Иванов-Запольский" REM COMPOSER "" INDEX 01 00:00:00 TRACK 02 AUDIO TITLE "Пиковая дама ( Два туза )" PERFORMER "Игорь Иванов-Запольский" REM COMPOSER "" INDEX 00 03:12:24 INDEX 01 03:14:24 TRACK 03 AUDIO TITLE "Отец мой пекарь, а мать воровка" PERFORMER "Игорь Иванов-Запольский" REM COMPOSER "" INDEX 00 06:17:47 INDEX 01 06:19:47 TRACK 04 AUDIO TITLE "Колодники" PERFORMER "Игорь Иванов-Запольский" REM COMPOSER "" INDEX 00 08:36:60 INDEX 01 08:38:60 TRACK 05 AUDIO TITLE "Семнадцать с половиною" PERFORMER "Игорь Иванов-Запольский" REM COMPOSER "" INDEX 00 12:46:25 INDEX 01 12:48:25 TRACK 06 AUDIO TITLE "Я о тебе пою, пойми печаль мою" PERFORMER "Игорь Иванов-Запольский" REM COMPOSER "" INDEX 00 14:58:71 INDEX 01 15:00:71 TRACK 07 AUDIO TITLE "Любка" PERFORMER "Игорь Иванов-Запольский" REM COMPOSER "" INDEX 00 19:17:23 INDEX 01 19:19:23 TRACK 08 AUDIO TITLE "Губит людей не пиво" PERFORMER "Игорь Иванов-Запольский" REM COMPOSER "" INDEX 00 24:05:52 INDEX 01 24:07:52 TRACK 09 AUDIO TITLE "Кыш вы, шкеты,под вагоны" PERFORMER "Игорь Иванов-Запольский" REM COMPOSER "" INDEX 00 27:02:37 INDEX 01 27:04:37 TRACK 10 AUDIO TITLE "Жил-был на Подоле" PERFORMER "Игорь Иванов-Запольский" REM COMPOSER "" INDEX 00 30:49:38 INDEX 01 30:51:38 TRACK 11 AUDIO TITLE "Послушай, моя красавица" PERFORMER "Игорь Иванов-Запольский" REM COMPOSER "" INDEX 00 37:01:14 INDEX 01 37:03:14 TRACK 12 AUDIO TITLE "Налей-ка рюмку, Роза" PERFORMER "Игорь Иванов-Запольский" REM COMPOSER "" INDEX 00 38:19:23 INDEX 01 38:21:23 TRACK 13 AUDIO TITLE "Три гудочка" PERFORMER "Игорь Иванов-Запольский" REM COMPOSER "" INDEX 00 41:44:01 INDEX 01 41:46:01 TRACK 14 AUDIO TITLE "Разлуки" PERFORMER "Игорь Иванов-Запольский" REM COMPOSER "" INDEX 00 48:04:01 INDEX 01 48:06:01 TRACK 15 AUDIO TITLE "Я живу близ Охотского моря" PERFORMER "Игорь Иванов-Запольский" REM COMPOSER "" INDEX 00 50:32:70 INDEX 01 50:34:70 TRACK 16 AUDIO TITLE "Как-то по проспекту" PERFORMER "Игорь Иванов-Запольский" REM COMPOSER "" INDEX 00 53:05:68 INDEX 01 53:07:68 TRACK 17 AUDIO TITLE "Как на кладбище Митрофановском" PERFORMER "Игорь Иванов-Запольский" REM COMPOSER "" INDEX 00 55:55:20 INDEX 01 55:57:20 TRACK 18 AUDIO TITLE "Цилиндром на солнце сверкая" PERFORMER "Игорь Иванов-Запольский" REM COMPOSER "" INDEX 00 61:10:37 INDEX 01 61:12:37 TRACK 19 AUDIO TITLE "Девушка с распущенной косой ( Иволга )" PERFORMER "Игорь Иванов-Запольский" REM COMPOSER "" INDEX 00 63:14:12 INDEX 01 63:16:12 TRACK 20 AUDIO TITLE "Есть в Красноярске тюрьма большая" PERFORMER "Игорь Иванов-Запольский" REM COMPOSER "" INDEX 00 66:40:01 INDEX 01 66:42:01

Лог проверки качества

-----------------------
DON'T MODIFY THIS FILE
-----------------------
PERFORMER: auCDtect Task Manager, ver. 1.6.0 RC1 build 1.6.0.1Copyright (c) 2008-2010 y-soft. All rights reservedhttp://y-soft.org
ANALYZER: auCDtect: CD records authenticity detector, version 0.8.2Copyright (c) 2004 Oleg Berngardt. All rights reserved.Copyright (c) 2004 Alexander Djourik. All rights reserved.
FILE: Игорь Иванов-Запольский - Судьба.flac Size: 467656328 Hash: 0A78A476A3758A016A5F00AA24472FA8 Accuracy: -m0 Conclusion: CDDA 100% Signature: A60912EF7E18B7F5AC5B015FDD608E16675B89C4


[galltoto.com]_t_5613905.torrent
Торрент: Зарегистрирован ·  [ 2018-09-23 18:31 ] ·  34bd7451a75a7210a8c63c3e842f1788275afcea

19 KB

Статус: проверено
Скачан: 0 раз
Размер: 466 MB
Оценка: 
(Голосов: 0)
Сказали спасибо: 0  Спасибо
Похожие темы
[Профиль]    [ЛС]
Показать сообщения:    
Ответить на тему

Текущее время: Сегодня 13:44

Часовой пояс: GMT + 7



Вы не можете начинать темы
Вы не можете отвечать на сообщения
Вы не можете редактировать свои сообщения
Вы не можете удалять свои сообщения
Вы не можете голосовать в опросах
Вы не можете прикреплять файлы к сообщениям
Вы можете скачивать файлы


الصفحة التالية | Wireless Pager Restaurant Calling Paging System 4pcs Watch Wrist Receiver+24pcs Call Transmitter Button Pager T117 | Katie Cassidy