(PsyChill | Ambient | Downtempo) [WEB] Kuba - Summer Breezing (EP) - 2015, FLAC (tracks), lossless

Ответить на тему
Статистика раздачи [Обновить пиров]
Размер:  186 MB   |    Зарегистрирован:  3 месяца 29 дней   |    Скачан:  0 раз

Полного источника не было: Никогда

 
   
 
 
 
Автор Сообщение

galltoto.com

Создавать темы 19-Сен-2018 17:55

[Цитировать]



Kuba
Summer Breezing





• Жанр: PsyChill | Ambient | Downtempo
• Носитель: WEB
• Год издания: 2015
• Издатель (лейбл) Kuba Records
• Страна-производитель релиза: UK
• Аудиокодек: FLAC (*.flac)
• Тип рипа: tracks
• Продолжительность: 00:31:13
• Источник (релизер): NTplosha ®
• WEB bandcamp
• Наличие сканов: front


01. Summer Breezing (00:06:07)
02. Mura (00:06:14)
03. Tashi (2014 Mix) (00:06:59)
04. Aushadhi (00:07:46)
05. Chiquita (00:04:05)

-
-

• Замер динамического диапазона

foobar2000 1.3.9 / Замер динамического диапазона (DR) 1.1.1Дата отчёта: 2018-07-25 17:43:34
--------------------------------------------------------------------------------Анализ: Kuba / Summer Breezing--------------------------------------------------------------------------------
DR Пики RMS Продолжительность трека--------------------------------------------------------------------------------DR6 -0.10 дБ -8.45 дБ 6:07 01-Summer BreezingDR10 0.00 дБ -12.21 дБ 6:15 02-MuraDR9 0.00 дБ -11.58 дБ 7:00 03-Tashi (2014 Mix)DR10 -0.10 дБ -12.55 дБ 7:46 04-AushadhiDR6 -0.10 дБ -8.31 дБ 4:06 05-Chiquita--------------------------------------------------------------------------------
Количество треков: 5Реальные значения DR: DR8
Частота: 44100 ГцКаналов: 2Разрядность: 16Битрейт: 824 кбит/сКодек: FLAC================================================================================
-

• Лог проверки качества

-----------------------
DON'T MODIFY THIS FILE
-----------------------
PERFORMER: auCDtect Task Manager, ver. 1.6.0 RC1 build 1.6.0.1Copyright (c) 2008-2010 y-soft. All rights reservedhttp://y-soft.org
ANALYZER: auCDtect: CD records authenticity detector, version 0.8.2Copyright (c) 2004 Oleg Berngardt. All rights reserved.Copyright (c) 2004 Alexander Djourik. All rights reserved.
FILE: 05. Chiquita.flac Size: 25436947 Hash: 17DDC57892DBA1D3CB0A6273C8025991 Accuracy: -m0 Conclusion: MPEG 95% Signature: E9C2E9265F55B6F1E8D0B5BB683DF830979E1C81FILE: 04. Aushadhi.flac Size: 49888433 Hash: 73B51CE8A4AC985BF1C81D07337280F9 Accuracy: -m0 Conclusion: CDDA 100% Signature: C5ECB77A2BC3636CC050DB2C468514868E576B28FILE: 03. Tashi (2014 Mix).flac Size: 41776367 Hash: 09ACC328DF1AAC0BFEB9112B1C9829BB Accuracy: -m0 Conclusion: CDDA 100% Signature: 5F3D99D30A2DBDC4721FDAF43A240C8839CFC92EFILE: 02. Mura.flac Size: 38052327 Hash: FA6F4504719527040F87D4A7430AA9BA Accuracy: -m0 Conclusion: CDDA 99% Signature: B9289D7F17721E58172D8BA45B3C9A6F48D4839EFILE: 01. Summer Breezing.flac Size: 39979168 Hash: 474D5B3DA35F5CA546EE2A7CE1E42399 Accuracy: -m0 Conclusion: CDDA 99% Signature: CD8CA800CF9EABC2CCE08E77E5656068A49C30FD
--


[galltoto.com]_t_5592098.torrent
Торрент: Зарегистрирован ·  [ 2018-09-19 17:55 ] ·  7a9842524746b4bf9b8adec857768c67934b68e7

15 KB

Статус: проверено
Скачан: 0 раз
Размер: 186 MB
Оценка: 
(Голосов: 0)
Сказали спасибо: 0  Спасибо
Похожие темы
[Профиль]    [ЛС]
Показать сообщения:    
Ответить на тему

Текущее время: Сегодня 20:48

Часовой пояс: GMT + 7



Вы не можете начинать темы
Вы не можете отвечать на сообщения
Вы не можете редактировать свои сообщения
Вы не можете удалять свои сообщения
Вы не можете голосовать в опросах
Вы не можете прикреплять файлы к сообщениям
Вы можете скачивать файлы


La Befana vien di notte | Willkommen im Wayne | O Ministério do Tempo Download Torrent Aventura / Drama / Fantasia / Ficção / Histórico Idioma: Inglês / Português 2017 MKV Torrent DownloadVídeo 10 / Áudio 10Sinopse: Ministério do Tempo é uma série de televisão portuguesa de ficção histórica e fantasia. O seu argumento gira em torno de uma repartição...