(Psychill | Psybreaks | Downtempo) [WEB] VA - Timeless Gems From The Vaults And The Fields - 2018, FLAC (tracks), lossless

Ответить на тему
Статистика раздачи [Обновить пиров]
Размер:  745 MB   |    Зарегистрирован:  3 месяца 29 дней   |    Скачан:  0 раз

Полного источника не было: Никогда

 
   
 
 
 
Автор Сообщение

galltoto.com

Создавать темы 19-Сен-2018 17:55

[Цитировать]



Timeless Gems From The Vaults And The Fields




• Жанр: Psychill | Psybreaks | Downtempo
• Носитель: WEB
• Год издания: 2018
• Издатель (лейбл) Iboga Records
• Номер по каталогу: IBOGADIGITAL436
• Аудиокодек: FLAC (*.flac)
• Тип рипа: tracks
• Продолжительность: 01:57:13
• Источник (релизер): NTplosha ®
• WEB beatport
• Наличие сканов: front

01 - Hibernation - Are You Sure (Original Mix) (00:05:25)
02 - Slack Magik - Wasabi Eyes (Original Mix) (00:05:18)
03 - Nagual Sound Experiment - Chimera (Original Mix) (00:09:09)
04 - Celt Islam - Medina (Original Mix) (00:05:03)
05 - Jam & Spoon - Peace Rap (Mirror System Edit) (00:04:59)
06 - Eat Static - Follow That Camel (Original Mix) (00:06:07)
07 - Slackbaba Feat. Aliji - Fortean Thieves (Original Mix) (00:07:34)
08 - Tripswitch - Tesselation (Original Mix) (00:08:13)
09 - Atomic Drop - Boomshot (Original Mix) (00:07:06)
10 - Little Thoughts - Mbi Gung Swa (Original Mix) (00:05:08)
11 - Mirror System - Far Journeys (Apsara Edit) (00:07:13)
12 - James Monro - Microtonic (Original Mix) (00:08:58)
13 - Audio Anonymous - Faceless Techno (Original Mix) (00:08:13)
14 - Nanoplex - Kumaon Division (2018 Mix) (00:07:08)
15 - Ben Coda - Silk Road (Original Mix) (00:08:07)
16 - 4D - Interference (Original Mix) (00:06:52)
17 - Rumpistol - Swing Drops (Rumpistol Ambient Remix) (00:06:32)-
-

Замер динамического диапазона

foobar2000 1.3.17 / Замер динамического диапазона (DR) 1.1.1Дата отчёта: 2018-07-26 23:01:13
--------------------------------------------------------------------------------Анализ: 4D / Timeless Gems From The Vaults And The Fields (1) Atomic Drop / Timeless Gems From The Vaults And The Fields (2) Audio Anonymous / Timeless Gems From The Vaults And The Fields (3) Ben Coda / Timeless Gems From The Vaults And The Fields (4) Celt Islam / Timeless Gems From The Vaults And The Fields (5) Eat Static / Timeless Gems From The Vaults And The Fields (6) Hibernation / Timeless Gems From The Vaults And The Fields (7) Jam & Spoon / Timeless Gems From The Vaults And The Fields (8) James Monro / Timeless Gems From The Vaults And The Fields (9) Little Thoughts / Timeless Gems From The Vaults And The Fields (10) Mirror System / Timeless Gems From The Vaults And The Fields (11) Nagual Sound Experiment / Timeless Gems From The Vaults And The Fields (12) Nanoplex / Timeless Gems From The Vaults And The Fields (13) Rumpistol / Timeless Gems From The Vaults And The Fields (14) Slack Magik / Timeless Gems From The Vaults And The Fields (15) Slackbaba Feat. Aliji / Timeless Gems From The Vaults And The Fields (16) Tripswitch / Timeless Gems From The Vaults And The Fields (17)--------------------------------------------------------------------------------
DR Пики RMS Продолжительность трека--------------------------------------------------------------------------------DR5 0.00 дБ -5.99 дБ 6:53 16-Interference (Original Mix)DR5 -0.10 дБ -6.95 дБ 7:06 09-Boomshot (Original Mix)DR5 -0.25 дБ -6.27 дБ 8:14 13-Faceless Techno (Original Mix)DR4 -0.30 дБ -5.15 дБ 8:08 15-Silk Road (Original Mix)DR5 0.00 дБ -7.03 дБ 5:04 04-Medina (Original Mix)DR8 -0.10 дБ -9.23 дБ 6:07 06-Follow That Camel (Original Mix)DR9 -0.10 дБ -10.79 дБ 5:26 01-Are You Sure? (Original Mix)DR9 0.00 дБ -11.31 дБ 5:00 05-Peace Rap (Mirror System Edit)DR6 0.00 дБ -6.80 дБ 8:58 12-Microtonic (Original Mix)DR4 -0.25 дБ -7.09 дБ 5:09 10-Mbi Gung Swa (Original Mix)DR6 -0.05 дБ -7.62 дБ 7:13 11-Far Journeys (Apsara Edit)DR7 -0.12 дБ -8.27 дБ 9:09 03-Chimera (Original Mix)DR5 -0.30 дБ -5.88 дБ 7:09 14-Kumaon Division (2018 Mix)DR8 -1.04 дБ -11.80 дБ 6:33 17-Swing Drops (Rumpistol Ambient Remix)DR7 -0.09 дБ -7.83 дБ 5:19 02-Wasabi Eyes (Original Mix)DR6 -0.30 дБ -7.45 дБ 7:34 07-Fortean Thieves (Original Mix)DR9 -0.70 дБ -11.40 дБ 8:14 08-Tesselation (Original Mix)--------------------------------------------------------------------------------
Количество треков: 17Реальные значения DR: DR6
Частота: 44100 ГцКаналов: 2Разрядность: 16Битрейт: 925 кбит/сКодек: FLAC================================================================================
-

Лог проверки качества

-----------------------
DON'T MODIFY THIS FILE
-----------------------
PERFORMER: auCDtect Task Manager, ver. 1.6.0 RC1 build 1.6.0.1Copyright (c) 2008-2010 y-soft. All rights reservedhttp://y-soft.org
ANALYZER: auCDtect: CD records authenticity detector, version 0.8.2Copyright (c) 2004 Oleg Berngardt. All rights reserved.Copyright (c) 2004 Alexander Djourik. All rights reserved.
FILE: 17 - Rumpistol - Swing Drops (Rumpistol Ambient Remix).flac Size: 41488759 Hash: 37E0EDF32CD94B80FF26C8CA28586181 Accuracy: -m0 Conclusion: CDDA 99% Signature: 93C7BB88CD296346F8210C8A429674E3DB89F27CFILE: 15 - Ben Coda - Silk Road (Original Mix).flac Size: 60447576 Hash: 646D9C04649EB7894BEF7C27816484DC Accuracy: -m0 Conclusion: CDDA 100% Signature: 3E6E6F43AFDE28D2D313326254F6D6F688AE2447FILE: 14 - Nanoplex - Kumaon Division (2018 Mix).flac Size: 48625210 Hash: 973552F2FBB27CCA0FB594D52A26A85B Accuracy: -m0 Conclusion: CDDA 100% Signature: E4A84F3915D246BC90112D216F15E8DAA6DF5948FILE: 13 - Audio Anonymous - Faceless Techno (Original Mix).flac Size: 50437278 Hash: 15B0E27F2C27FD51C8487DC290670DF5 Accuracy: -m0 Conclusion: MPEG 95% Signature: 23F510BB729FA2483240C1D7FE3F865A5FB70906FILE: 12 - James Monro - Microtonic (Original Mix).flac Size: 51589694 Hash: 7D130AE6E972F8CEA684D7650BBE28C3 Accuracy: -m0 Conclusion: CDDA 100% Signature: 3D3E7A1C22464A6C470D36E10E661981A54824CCFILE: 11 - Mirror System - Far Journeys (Apsara Edit).flac Size: 40577604 Hash: 94D5150BB156BCE72A30F48068402963 Accuracy: -m0 Conclusion: CDDA 100% Signature: 9A6CFB9782CE118F12FA74D97805152E98BC886AFILE: 10 - Little Thoughts - Mbi Gung Swa (Original Mix).flac Size: 33510616 Hash: 9A2CB2B97B535B6D48F0572A01FB8F43 Accuracy: -m0 Conclusion: CDDA 100% Signature: E35B59C4596E478F14B365E8B413B2C0529FE654FILE: 09 - Atomic Drop - Boomshot (Original Mix).flac Size: 47181500 Hash: 072A609DBB2732A5BC55B9C95F92EFFD Accuracy: -m0 Conclusion: CDDA 100% Signature: E08A423BB38C5935708E81D01989C3016A2731DFFILE: 08 - Tripswitch - Tesselation (Original Mix).flac Size: 57181714 Hash: EF1407D9A379BD9DF7327C375E6B1A9D Accuracy: -m0 Conclusion: CDDA 100% Signature: 05F36E6D27AFB94926B19EA31AF036D717003FA4FILE: 07 - Slackbaba Feat. Aliji - Fortean Thieves (Original Mix).flac Size: 55616361 Hash: 67FA662A3824CCEDD6370046402AC53B Accuracy: -m0 Conclusion: CDDA 100% Signature: 58451710578F5EB02796B9D5A93E1FF24941B0B7FILE: 06 - Eat Static - Follow That Camel (Original Mix).flac Size: 44582667 Hash: 35E11DFE7FBE82817663B5DBE9A0BF3F Accuracy: -m0 Conclusion: CDDA 100% Signature: 76BFB6453D0FD37FDF010D81508D30D0F08339D4FILE: 05 - Jam & Spoon - Peace Rap (Mirror System Edit).flac Size: 32786017 Hash: 2814446640C268EA156973BD94261774 Accuracy: -m0 Conclusion: CDDA 100% Signature: 77DB4039B416B41F2DFB9212228EA48D89D31554FILE: 04 - Celt Islam - Medina (Original Mix).flac Size: 37952449 Hash: 1E0D4A2809A41A7D39ACCD5647D5B82C Accuracy: -m0 Conclusion: CDDA 99% Signature: E7C5C1B942B79C18569548D814584527660F97D1FILE: 03 - Nagual Sound Experiment - Chimera (Original Mix).flac Size: 62448465 Hash: A1F39894441D6B8A41256A08DC6F28A7 Accuracy: -m0 Conclusion: CDDA 100% Signature: E4635FE78FF2FB25E7BC44969BD0E8FE0E1B1993FILE: 02 - Slack Magik - Wasabi Eyes (Original Mix).flac Size: 34005420 Hash: 5E5138D27EF8DFDD03674D58E1742294 Accuracy: -m0 Conclusion: MPEG 95% Signature: 6D1A95E8FC9D3A432529C05D7E9C068C40F8368CFILE: 01 - Hibernation - Are You Sure (Original Mix).flac Size: 32985014 Hash: F8ABDA44F31B2B97EDE4B72F08097A9C Accuracy: -m0 Conclusion: CDDA 100% Signature: 7A7D487923FF133C030A1B994E0B54ABC91C78C5
--


[galltoto.com]_t_5592599.torrent
Торрент: Зарегистрирован ·  [ 2018-09-19 17:55 ] ·  360eff6f4e05703329c895a1ee66e465f3a88686

16 KB

Статус: проверено
Скачан: 0 раз
Размер: 745 MB
Оценка: 
(Голосов: 0)
Сказали спасибо: 0  Спасибо
Похожие темы
[Профиль]    [ЛС]
Показать сообщения:    
Ответить на тему

Текущее время: Сегодня 20:46

Часовой пояс: GMT + 7



Вы не можете начинать темы
Вы не можете отвечать на сообщения
Вы не можете редактировать свои сообщения
Вы не можете удалять свои сообщения
Вы не можете голосовать в опросах
Вы не можете прикреплять файлы к сообщениям
Вы можете скачивать файлы


Economic Growth and Development - 424 Words | Watch movie | [Chapter 243]