(Psychill | Ambient Dub | Psy-Trance) [WEB] Sygnals - Climax (EP) - 2018, FLAC (tracks), lossless

Ответить на тему
Статистика раздачи [Обновить пиров]
Размер:  199 MB   |    Зарегистрирован:  3 месяца 29 дней   |    Скачан:  0 раз

Полного источника не было: Никогда

 
   
 
 
 
Автор Сообщение

galltoto.com

Создавать темы 19-Сен-2018 17:55

[Цитировать]

Sygnals - Climax



• Жанр: Psychill | Ambient Dub | Psy-Trance
• Носитель: WEB
• Год издания: 2018
• Издатель Mindspring Music
• Номер по каталогу: MSM043
• Страна-производитель релиза: USA, Dallas, Texas
• Аудиокодек: FLAC (*.flac)
• Тип рипа: tracks
• Продолжительность: 00:28:47
• Источник (релизер):NTDMMANIAC ®
• WEB bandcamp
• Наличие сканов: front

01 - Forest Community (00:10:31)
02 - Clematis (00:08:34)
03 - Theros (00:09:42)
-

• Замер динамического диапазона •

foobar2000 1.2.5 / Замер динамического диапазона (DR) 1.1.1
Дата отчёта: 2018-04-26 00:28:24
--------------------------------------------------------------------------------
Анализ: Sygnals / Climax
--------------------------------------------------------------------------------
DR Пики RMS Продолжительность трека
--------------------------------------------------------------------------------
DR8 -0.09 дБ -9.30 дБ 10:31 01-Forest Community
DR9 -0.09 дБ -10.58 дБ 8:34 02-Clematis
DR9 -0.09 дБ -10.38 дБ 9:43 03-Theros
--------------------------------------------------------------------------------
Количество треков: 3
Реальные значения DR: DR9
Частота: 44100 Гц
Каналов: 2
Разрядность: 16
Битрейт: 936 кбит/с
Кодек: FLAC
================================================================================
--

• Лог проверки качества •

-----------------------
DON'T MODIFY THIS FILE
-----------------------
PERFORMER: auCDtect Task Manager, ver. 1.6.0 RC1 build 1.6.0.1Copyright (c) 2008-2010 y-soft. All rights reservedhttp://y-soft.org
ANALYZER: auCDtect: CD records authenticity detector, version 0.8.2Copyright (c) 2004 Oleg Berngardt. All rights reserved.Copyright (c) 2004 Alexander Djourik. All rights reserved.
FILE: 03 - Theros.flac Size: 68592372 Hash: E9E97EF9DEBAF86E54416367873A353B Accuracy: -m0 Conclusion: CDDA 99% Signature: 3B7A2425B87E9C37A1B4C7BF552ACE071F735FBCFILE: 02 - Clematis.flac Size: 62593450 Hash: 5D7DA5567BF83C7E86B0EA1C9823EEB2 Accuracy: -m0 Conclusion: CDDA 100% Signature: 8763EB51C5ABCD51D39CD188F4A6465FAA9D653DFILE: 01 - Forest Community.flac Size: 78245717 Hash: 7C516237D88FA0ECC7A6690782C63EFF Accuracy: -m0 Conclusion: CDDA 100% Signature: B73D748C80FA41CD1550DA03F426907EF67F7259
--______________________________________


[galltoto.com]_t_5592780.torrent
Торрент: Зарегистрирован ·  [ 2018-09-19 17:55 ] ·  679deba9bc4356a522cd4ef4be4caf12d6c1a5b6

16 KB

Статус: проверено
Скачан: 0 раз
Размер: 199 MB
Оценка: 
(Голосов: 0)
Сказали спасибо: 0  Спасибо
Похожие темы
[Профиль]    [ЛС]
Показать сообщения:    
Ответить на тему

Текущее время: Сегодня 20:45

Часовой пояс: GMT + 7



Вы не можете начинать темы
Вы не можете отвечать на сообщения
Вы не можете редактировать свои сообщения
Вы не можете удалять свои сообщения
Вы не можете голосовать в опросах
Вы не можете прикреплять файлы к сообщениям
Вы можете скачивать файлы


Abismo do Medo DUBLADO E LEGENDADO ONLINE | Qui garde le chien ? FRENCH DVDRIP 2018 | XMusic-(Music-Player)--MP3-Player -Audio-Player-v2-0-5-46-Cracked-Apk-[CracksNow..