(Psychill | Ambient ) [WEB] Sapien - Origins (EP) - 2018, FLAC (tracks), lossless

Ответить на тему
Статистика раздачи [Обновить пиров]
Размер:  171 MB   |    Зарегистрирован:  5 месяцев 2 дня   |    Скачан:  0 раз

Полного источника не было: Никогда

 
   
 
 
 
Автор Сообщение

galltoto.com

Создавать темы 19-Сен-2018 17:55

[Цитировать]

Sapien - Origins



• Жанр: Psychill | Ambient
• Носитель: WEB
• Год издания: 2018
• Издатель Mindspring Music
• Номер по каталогу: MSM048
• Страна-производитель релиза: USA, Dallas, Texas
• Аудиокодек: FLAC (*.flac)
• Тип рипа: tracks
• Продолжительность: 00:30:52
• Источник (релизер):NTDMMANIAC ®
• WEB bandcamp
• Наличие сканов: front

01 - Origins (00:04:52)
02 - Masala (00:07:05)
03 - Casablanca (00:06:32)
04 - Tektite (00:06:58)
05 - Multiverse (00:05:24)
-

• Замер динамического диапазона •

foobar2000 1.2.5 / Замер динамического диапазона (DR) 1.1.1
Дата отчёта: 2018-04-26 00:35:13
--------------------------------------------------------------------------------
Анализ: Sapien / Origins
--------------------------------------------------------------------------------
DR Пики RMS Продолжительность трека
--------------------------------------------------------------------------------
DR12 0.00 дБ -16.32 дБ 4:52 01-Origins
DR7 0.00 дБ -10.22 дБ 7:05 02-Masala
DR9 0.00 дБ -11.50 дБ 6:33 03-Casablanca
DR9 0.00 дБ -12.21 дБ 6:58 04-Tektite
DR10 0.00 дБ -12.93 дБ 5:24 05-Multiverse
--------------------------------------------------------------------------------
Количество треков: 5
Реальные значения DR: DR9
Частота: 44100 Гц
Каналов: 2
Разрядность: 16
Битрейт: 827 кбит/с
Кодек: FLAC
================================================================================
--

• Лог проверки качества •

-----------------------
DON'T MODIFY THIS FILE
-----------------------
PERFORMER: auCDtect Task Manager, ver. 1.6.0 RC1 build 1.6.0.1Copyright (c) 2008-2010 y-soft. All rights reservedhttp://y-soft.org
ANALYZER: auCDtect: CD records authenticity detector, version 0.8.2Copyright (c) 2004 Oleg Berngardt. All rights reserved.Copyright (c) 2004 Alexander Djourik. All rights reserved.
FILE: 05 - Multiverse.flac Size: 33934042 Hash: 9A300AC9FD7768BD96669288286135B9 Accuracy: -m0 Conclusion: CDDA 100% Signature: 359F1C4EA440FF3BE02B42003E95829745856639FILE: 04 - Tektite.flac Size: 40580396 Hash: 524D368002DA8AAA80D307B7F74A61EF Accuracy: -m0 Conclusion: CDDA 100% Signature: A950975CD71747AB7569E979F5670945DBD60567FILE: 03 - Casablanca.flac Size: 38602364 Hash: 54B34D3BCAF8BE3831DB0782761ABE9F Accuracy: -m0 Conclusion: CDDA 86% Signature: A00B521062AEE83BA44B464038EBAA1AE7800FC6FILE: 02 - Masala.flac Size: 38733158 Hash: 0226D5732344E73255713DF494C53187 Accuracy: -m0 Conclusion: CDDA 43% Signature: C413937282EF36FFD3EDC5B76DD6391F85955095FILE: 01 - Origins.flac Size: 28592734 Hash: C53080E9845661B634F337557B7EFFAF Accuracy: -m0 Conclusion: MPEG 93% Signature: 3D0D1964E1BDFB418527988C4D59574EC831C1DF
--______________________________________


[galltoto.com]_t_5592783.torrent
Торрент: Зарегистрирован ·  [ 2018-09-19 17:55 ] ·  d9bb1adab8db7796322369baa47152f67c7ab373

14 KB

Статус: проверено
Скачан: 0 раз
Размер: 171 MB
Оценка: 
(Голосов: 0)
Сказали спасибо: 0  Спасибо
Похожие темы
[Профиль]    [ЛС]
Показать сообщения:    
Ответить на тему

Текущее время: Сегодня 19:49

Часовой пояс: GMT + 7



Вы не можете начинать темы
Вы не можете отвечать на сообщения
Вы не можете редактировать свои сообщения
Вы не можете удалять свои сообщения
Вы не можете голосовать в опросах
Вы не можете прикреплять файлы к сообщениям
Вы можете скачивать файлы


storici-biografici6 | Rogue Mission FRENCH HDRiP 2018 | Master In The House - 집사부일체Master In The House