(Ambient | Downtempo | Dubstep) [WEB] J Whitty - Viridian - 2018, FLAC (tracks), lossless

Ответить на тему
Статистика раздачи [Обновить пиров]
Размер:  234 MB   |    Зарегистрирован:  5 месяцев 2 дня   |    Скачан:  0 раз

Полного источника не было: Никогда

 
   
 
 
 
Автор Сообщение

galltoto.com

Создавать темы 19-Сен-2018 17:55

[Цитировать]



J Whitty

Viridian





• Жанр: Downtempo | Dubstep
• Носитель: WEB
• Год издания: 2018
• Издатель (лейбл) AstroPilot Music
• Страна: Spain
• Аудиокодек: FLAC (*.flac)
• Тип рипа: tracks
• Продолжительность: 00:42:43
• Источник (релизер): NTPsyPixel ®
• WEB bandcamp
• Наличие сканов: front

01 - Sensing (00:07:22)
02 - Vista (00:05:21)
03 - Kalimba (feat. LeSage) (00:04:52)
04 - Spirit Wood (00:04:33)
05 - Weathered (00:03:53)
06 - I Hear You Me (00:02:27)
07 - Dreamscape (feat. K Murky) (00:04:10)
08 - Viridian (00:06:57)
09 - Amanecer (00:03:05)

-
-

• Замер динамического диапазона

foobar2000 1.3.9 / Замер динамического диапазона (DR) 1.1.1Дата отчёта: 2018-08-03 08:03:59
--------------------------------------------------------------------------------Анализ: J Whitty, K Murky / Viridian (1) J Whitty, LeSage, Lesage / Viridian (2) J Whitty / Viridian (3-9)--------------------------------------------------------------------------------
DR Пики RMS Продолжительность трека--------------------------------------------------------------------------------DR8 -0.61 дБ -10.66 дБ 4:10 7-Dreamscape (feat. K Murky)DR8 -0.61 дБ -11.12 дБ 4:53 3-Kalimba (feat. LeSage)DR7 -0.57 дБ -11.21 дБ 7:22 1-SensingDR8 -0.59 дБ -11.54 дБ 5:21 2-VistaDR8 -0.55 дБ -10.28 дБ 4:34 4-Spirit WoodDR7 -0.59 дБ -10.86 дБ 3:53 5-WeatheredDR7 -0.61 дБ -10.40 дБ 2:27 6-I Hear You MeDR8 -0.60 дБ -9.79 дБ 6:57 8-ViridianDR7 -0.60 дБ -10.99 дБ 3:05 9-Amanecer--------------------------------------------------------------------------------
Количество треков: 9Реальные значения DR: DR8
Частота: 44100 ГцКаналов: 2Разрядность: 16Битрейт: 731 кбит/сКодек: FLAC================================================================================
-

• Лог проверки качества

AUDIOCHECKER v2.0 beta (build 457) - by Dester - opdester@freemail.hu~~~~~~~~~~~~~~~~~~~~~~~~~~~~~~~~~~-=== НЕ РЕДАКТИРУЙТЕ ЭТОТ ФАЙЛ! ===-
Путь: ...\J Whitty - Viridian (2018) FLAC
1 -=- 01 Sensing.flac -=- CDDA (99%)2 -=- 02 Vista.flac -=- CDDA (100%)3 -=- 03 Kalimba (feat. LeSage).flac -=- CDDA (100%)4 -=- 04 Spirit Wood.flac -=- CDDA (100%)5 -=- 05 Weathered.flac -=- CDDA (100%)6 -=- 06 I Hear You Me.flac -=- CDDA (100%)7 -=- 07 Dreamscape (feat. K Murky).flac -=- CDDA (100%)8 -=- 08 Viridian.flac -=- CDDA (99%)9 -=- 09 Amanecer.flac -=- CDDA (100%)
Сводка 99,78% CDDA
213315220
-

• INFO •

J Whitty is a downtempo musician/producer out of Barcelona, Spain.
Through the use of rich textures and psychedelic atmospheres, he
transports the listener to uncharted spaces, melding modern sound
design methods with ancient tones used in spiritual practices from
around the world.
Viridian is the next reincarnation of that search for sounds and
spaces that can bring us wonder and nostalgia without ever consciously
having thought of that destination.
-


[galltoto.com]_t_5595778.torrent
Торрент: Зарегистрирован ·  [ 2018-09-19 17:55 ] ·  688f4c7a2d7190476142be7a0abe2a143ad38a42

19 KB

Статус: проверено
Скачан: 0 раз
Размер: 234 MB
Оценка: 
(Голосов: 0)
Сказали спасибо: 0  Спасибо
Похожие темы
[Профиль]    [ЛС]
Показать сообщения:    
Ответить на тему

Текущее время: Сегодня 19:08

Часовой пояс: GMT + 7



Вы не можете начинать темы
Вы не можете отвечать на сообщения
Вы не можете редактировать свои сообщения
Вы не можете удалять свои сообщения
Вы не можете голосовать в опросах
Вы не можете прикреплять файлы к сообщениям
Вы можете скачивать файлы


VA - Hitzone 88 (2019) | Dr Jeff Rocky Mountain Vet S04E06 720p HEVC x265-MeGusta 27 minutes | Jens Hultén