(Downtempo | Ambient) [WEB] Charm Days - Shelter - 2018, FLAC (tracks), lossless

Ответить на тему
Статистика раздачи [Обновить пиров]
Размер:  201 MB   |    Зарегистрирован:  3 месяца 29 дней   |    Скачан:  0 раз

Полного источника не было: Никогда

 
   
 
 
 
Автор Сообщение

galltoto.com

Создавать темы 19-Сен-2018 17:55

[Цитировать]



Charm Days

Shelter





• Жанр: Downtempo | Ambient
• Носитель: WEB
• Год издания: 2018
• Издатель (лейбл) Sun Sea Sky Productions
• Номер по каталогу: SSS088
• Страна-производитель релиза: USA
• Аудиокодек: FLAC (*.flac)
• Тип рипа: tracks
• Продолжительность: 00:33:55
• Источник (спасибо): DMMANIAC
• WEB bandcamp
• Наличие сканов: front

01 - Shelter (00:02:36)
02 - Pieces (00:03:58)
03 - Springtime Shirt (00:03:51)
04 - Where Monsters Roamed (00:02:50)
05 - Kyanjin Gompa (00:04:42)
06 - Sugarwoods (00:03:30)
07 - Safe (00:04:09)
08 - Bibis (00:03:27)
09 - The Quiet Lights (00:04:47)

-
-

• Замер динамического диапазона •

foobar2000 1.2.5 / Замер динамического диапазона (DR) 1.1.1Дата отчёта: 2018-05-26 16:34:13
--------------------------------------------------------------------------------Анализ: Charm Days / Shelter--------------------------------------------------------------------------------
DR Пики RMS Продолжительность трека--------------------------------------------------------------------------------DR7 -0.04 дБ -8.16 дБ 2:37 01-ShelterDR5 -0.06 дБ -8.17 дБ 3:59 02-PiecesDR7 -0.01 дБ -8.06 дБ 3:52 03-Springtime ShirtDR5 0.00 дБ -6.58 дБ 2:51 04-Where Monsters RoamedDR8 -0.08 дБ -10.04 дБ 4:42 05-Kyanjin GompaDR5 -0.09 дБ -6.98 дБ 3:31 06-SugarwoodsDR8 -0.05 дБ -9.99 дБ 4:10 07-SafeDR7 -0.08 дБ -8.43 дБ 3:27 08-BibisDR7 -0.09 дБ -10.23 дБ 4:48 09-The Quiet Lights--------------------------------------------------------------------------------
Количество треков: 9Реальные значения DR: DR7
Частота: 44100 ГцКаналов: 2Разрядность: 16Битрейт: 817 кбит/сКодек: FLAC================================================================================
-

• Лог проверки качества •

-----------------------
DON'T MODIFY THIS FILE
-----------------------
PERFORMER: auCDtect Task Manager, ver. 1.6.0 RC1 build 1.6.0.1Copyright (c) 2008-2010 y-soft. All rights reservedhttp://y-soft.org
ANALYZER: auCDtect: CD records authenticity detector, version 0.8.2Copyright (c) 2004 Oleg Berngardt. All rights reserved.Copyright (c) 2004 Alexander Djourik. All rights reserved.
FILE: 09 - The Quiet Lights.flac Size: 30106633 Hash: DA154D85F1348BBDB64542B8C0FF5684 Accuracy: -m0 Conclusion: CDDA 100% Signature: DDC2EBDD7C50EA5463C6D27026BAD074FA62BBF3FILE: 08 - Bibis.flac Size: 23228728 Hash: B937C38DBB285DF23643073AD7416FB5 Accuracy: -m0 Conclusion: CDDA 100% Signature: 3CCAC8F3CEEC85DD51275F078D3D74DA5C5374D7FILE: 07 - Safe.flac Size: 22510736 Hash: 66873C55077B66F26559A330B77C62FF Accuracy: -m0 Conclusion: CDDA 99% Signature: 2BE731F9509BA0EC702261169A02E4A7B3D40336FILE: 06 - Sugarwoods.flac Size: 23075660 Hash: 987ED314A5EB5E510C3CA12C5CE2CFC5 Accuracy: -m0 Conclusion: CDDA 100% Signature: 69CCFFCF34923BB5742B5E6BA7DEF2BC9315563CFILE: 05 - Kyanjin Gompa.flac Size: 30941938 Hash: E4DAB9269E320147C214AA414A18DD1C Accuracy: -m0 Conclusion: CDDA 100% Signature: A9F1B73274B523930E4A58A43521B658182BF9DBFILE: 04 - Where Monsters Roamed.flac Size: 18181460 Hash: 721C73120F21731C1878D70D9601E7C9 Accuracy: -m0 Conclusion: CDDA 100% Signature: E60C7D28380A6773A3A1136F33A817B3CD950736FILE: 03 - Springtime Shirt.flac Size: 23358303 Hash: B87E5FFFA5403B6437A2DF0CA7E93538 Accuracy: -m0 Conclusion: CDDA 100% Signature: 2526BF187AE997EEC6810355F9A0C9ABB31265FCFILE: 02 - Pieces.flac Size: 25748139 Hash: DE54D2E951F99AC1E6D5DCA6A38B7C62 Accuracy: -m0 Conclusion: CDDA 99% Signature: 33187FF364A95CB713A154521FB79F4A6E41CD8DFILE: 01 - Shelter.flac Size: 18039683 Hash: A629CCD776A0000664C3B4DAF47624EF Accuracy: -m0 Conclusion: CDDA 100% Signature: 1F99A0887CD52C9008BFB5BF39F12C735462A3C2
-


[galltoto.com]_t_5599742.torrent
Торрент: Зарегистрирован ·  [ 2018-09-19 17:55 ] ·  16a58c856d9ed1ee868ebf79660f8b88b1dd4ab6

17 KB

Статус: проверено
Скачан: 0 раз
Размер: 201 MB
Оценка: 
(Голосов: 0)
Сказали спасибо: 0  Спасибо
Похожие темы
[Профиль]    [ЛС]
Показать сообщения:    
Ответить на тему

Текущее время: Сегодня 20:58

Часовой пояс: GMT + 7



Вы не можете начинать темы
Вы не можете отвечать на сообщения
Вы не можете редактировать свои сообщения
Вы не можете удалять свои сообщения
Вы не можете голосовать в опросах
Вы не можете прикреплять файлы к сообщениям
Вы можете скачивать файлы


Teen Wolf - Season 2 | cardi b stripper nude leaked | Suits 4. Sezon