(Шансон) Группа «Шансонетки» - Дискография (2 CD) - 2004-2005, FLAC (image+.cue), lossless

Ответить на тему
Статистика раздачи [Обновить пиров]
Размер:  643 MB   |    Зарегистрирован:  4 месяца 10 дней   |    Скачан:  0 раз

Полного источника не было: Никогда

 
   
 
 
 
Автор Сообщение

galltoto.com

Создавать темы 08-Сен-2018 22:08

[Цитировать]

- ---Группа «Шансонетки»--- - - ---Жанр: Шансон
Годы издания: 2004-2005
Аудиокодек: FLAC
Тип рипа: tracks
Битрейт аудио: lossless
Продолжительность: 01:22:59
Источник (релизер): [url=profile.php?mode=viewprofile&u=22110310]shansonchik[/url]
Наличие сканов в содержимом раздачи: да | 600 dpi |
--- -Альбомы-

| 00:42:10 | – 2004 – Отвали, мусор!

-01 - Топ-топ забухали
02 - Шансонетки
03 - Чижик-пыжик
04 - Я там была
05 - Валенки
06 - Алло
07 - Мустафа
08 - Пиво-пиво
09 - Кольщица
10 - Отвали, мусор!
11 - Передачка
12 - Половое созревание

Лог создания рипа

Exact Audio Copy V1.0 beta 4 from 7. December 2014
Отчёт EAC об извлечении, выполненном 19. августа 2018, 22:26
Группа «Шансонетки» / Отвали, мусор!
Дисковод: ASUS DRW-1814BL Adapter: 1 ID: 0
Режим чтения : ДостоверностьИспользование точного потока : ДаОтключение кэша аудио : ДаИспользование указателей C2 : Нет
Коррекция смещения при чтении : 6Способность читать области Lead-in и Lead-out : НетЗаполнение пропущенных сэмплов тишиной : ДаУдаление блоков с тишиной в начале и конце : НетПри вычислениях CRC использовались нулевые сэмплы : ДаИнтерфейс : Встроенный Win32-интерфейс для Win NT/2000
Выходной формат : Пользовательский кодировщикВыбранный битрейт : 128 kBit/sКачество : ВысокийДобавление ID3-тега : НетУтилита сжатия : C:\Program Files\Exact Audio Copy\Flac\flac.exeДополнительные параметры : -V -8 -T "Date=%year%" -T "Genre=%genre%" %source%
TOC извлечённого CD
Трек | Старт | Длительность | Начальный сектор | Конечный сектор --------------------------------------------------------------------- 1 | 0:00.00 | 3:23.52 | 0 | 15276 2 | 3:23.52 | 3:50.05 | 15277 | 32531 3 | 7:13.57 | 3:34.68 | 32532 | 48649 4 | 10:48.50 | 3:33.09 | 48650 | 64633 5 | 14:21.59 | 3:20.71 | 64634 | 79704 6 | 17:42.55 | 3:55.52 | 79705 | 97381 7 | 21:38.32 | 3:38.47 | 97382 | 113778 8 | 25:17.04 | 3:41.43 | 113779 | 130396 9 | 28:58.47 | 3:06.20 | 130397 | 144366 10 | 32:04.67 | 3:32.60 | 144367 | 160326 11 | 35:37.52 | 3:08.44 | 160327 | 174470 12 | 38:46.21 | 3:23.74 | 174471 | 189769
Характеристики диапазона извлечения и сообщения об ошибках
Выбранный диапазон
Имя файла E:\shansonchik\Группа «Шансонетки» - Отвали, мусор!.wav
Пиковый уровень 98.8 % Скорость извлечения 8.0 X Качество диапазона 100.0 % CRC теста E026198F CRC копии E026198F Копирование... OK
Ошибок не произошло
Конец отчёта
==== Контрольная сумма отчёта BF42C7A7B9264F708BA7DB7E14B82844772D3A179D68459AE857ABF36AA74A49 ====

Tau Analyzer

| 00:40:48 | – 2005 – Разлучница-подруга

-01 - Новый год без водки
02 - Танечка
03 - Разлучница-подруга
04 - Листья жгут (при участии группы «Вовочка»)
05 - Тамара из Самара
06 - Бокал вина
07 - Быки
08 - Исповедь сироты
09 - Гуляйте, девочки
10 - Украду я тебя

Лог создания рипа

Exact Audio Copy V1.0 beta 4 from 7. December 2014
Отчёт EAC об извлечении, выполненном 19. августа 2018, 23:14
Группа «Шансонетки» / Разлучница-подруга
Дисковод: ASUS DRW-1814BL Adapter: 1 ID: 0
Режим чтения : ДостоверностьИспользование точного потока : ДаОтключение кэша аудио : ДаИспользование указателей C2 : Нет
Коррекция смещения при чтении : 6Способность читать области Lead-in и Lead-out : НетЗаполнение пропущенных сэмплов тишиной : ДаУдаление блоков с тишиной в начале и конце : НетПри вычислениях CRC использовались нулевые сэмплы : ДаИнтерфейс : Встроенный Win32-интерфейс для Win NT/2000
Выходной формат : Пользовательский кодировщикВыбранный битрейт : 128 kBit/sКачество : ВысокийДобавление ID3-тега : НетУтилита сжатия : C:\Program Files\Exact Audio Copy\Flac\flac.exeДополнительные параметры : -V -8 -T "Date=%year%" -T "Genre=%genre%" %source%
TOC извлечённого CD
Трек | Старт | Длительность | Начальный сектор | Конечный сектор --------------------------------------------------------------------- 1 | 0:00.00 | 4:12.40 | 0 | 18939 2 | 4:12.40 | 4:02.67 | 18940 | 37156 3 | 8:15.32 | 3:49.52 | 37157 | 54383 4 | 12:05.09 | 4:14.39 | 54384 | 73472 5 | 16:19.48 | 3:58.21 | 73473 | 91343 6 | 20:17.69 | 4:01.73 | 91344 | 109491 7 | 24:19.67 | 2:49.05 | 109492 | 122171 8 | 27:08.72 | 5:20.45 | 122172 | 146216 9 | 32:29.42 | 3:31.09 | 146217 | 162050 10 | 36:00.51 | 4:48.07 | 162051 | 183657
Характеристики диапазона извлечения и сообщения об ошибках
Выбранный диапазон
Имя файла E:\shansonchik\Группа «Шансонетки» - Разлучница-подруга.wav
Пиковый уровень 97.7 % Скорость извлечения 7.8 X Качество диапазона 100.0 % CRC теста 925368AD CRC копии 925368AD Копирование... OK
Ошибок не произошло
Конец отчёта
==== Контрольная сумма отчёта 0CC0E2F34664C19365C4910C660907DC076AC4D640E8922B9D65FC3A2EBBE36E ====

Tau Analyzer

-


[galltoto.com]_t_5606783.torrent
Торрент: Зарегистрирован ·  [ 2018-09-08 22:07 ] ·  4b2242cd6d106662a17e9b79ab0e48d778b48156

15 KB

Статус: проверено
Скачан: 0 раз
Размер: 643 MB
Оценка: 
(Голосов: 0)
Сказали спасибо: 0  Спасибо
Похожие темы
[Профиль]    [ЛС]
Показать сообщения:    
Ответить на тему

Текущее время: Сегодня 13:27

Часовой пояс: GMT + 7



Вы не можете начинать темы
Вы не можете отвечать на сообщения
Вы не можете редактировать свои сообщения
Вы не можете удалять свои сообщения
Вы не можете голосовать в опросах
Вы не можете прикреплять файлы к сообщениям
Вы можете скачивать файлы


Women A-line Going out Sleeveless Solid Dress | └ Fumetti | EZ Flash IV Omega NUEVO.NEW, Boxed,double case. GameBoy Advance GBA NDS Game Boy