(Шансон) [CD] Зелёный свет - Зелёный свет - 1997, FLAC (image+.cue), lossless

Ответить на тему
Статистика раздачи [Обновить пиров]
Размер:  298 MB   |    Зарегистрирован:  5 месяцев 23 дня   |    Скачан:  1 раз

Полного источника не было: 1 месяц

 
   
 
 
 
Автор Сообщение

galltoto.com

Создавать темы 26-Июл-2018 19:33

[Цитировать]

Зелёный свет / Зелёный свет
Жанр: Шансон
Носитель: CD
Страна-производитель диска (релиза): Россия
Год издания: 1997
Издатель (лейбл): Master Sound
Номер по каталогу: MS 120
Страна исполнителя (группы): Россия
Аудиокодек: FLAC (*.flac)
Тип рипа: image+.cue
Битрейт аудио: lossless
Продолжительность: 00:42:46
Источник (релизер): Свой рип
Наличие сканов в содержимом раздачи: да
Треклист:
01. Душа поёт
02. Новый год
03. Не могу без тебя
04. Песня для пацанов
05. Россия - Мама
06. Первая любовь
07. А ты ушла...
08. Мой ''Огненный Конь''
09. Мы будем вместе
10. Птицей улетай
11. Как в первый раз
12. Чардаш

Лог создания рипа

Exact Audio Copy V1.3 from 2. September 2016
Отчёт EAC об извлечении, выполненном 7. июля 2018, 22:54
Зеленый свет / Зеленый свет
Дисковод: ASUS DRW-24D5MT Adapter: 1 ID: 0
Режим чтения : ДостоверностьИспользование точного потока : ДаОтключение кэша аудио : ДаИспользование указателей C2 : Нет
Коррекция смещения при чтении : 6Способность читать области Lead-in и Lead-out : НетЗаполнение пропущенных сэмплов тишиной : ДаУдаление блоков с тишиной в начале и конце : НетПри вычислениях CRC использовались нулевые сэмплы : ДаИнтерфейс : Встроенный Win32-интерфейс для Win NT/2000
Выходной формат : Пользовательский кодировщикВыбранный битрейт : 128 kBit/sКачество : ВысокийДобавление ID3-тега : НетУтилита сжатия : C:\Program Files (x86)\Exact Audio Copy\Flac\flac.exeДополнительные параметры : -V -8 -T "Date=%year%" -T "Genre=%genre%" %source%
TOC извлечённого CD
Трек | Старт | Длительность | Начальный сектор | Конечный сектор --------------------------------------------------------------------- 1 | 0:00.55 | 2:47.25 | 55 | 12604 2 | 2:48.05 | 2:52.02 | 12605 | 25506 3 | 5:40.07 | 4:04.40 | 25507 | 43846 4 | 9:44.47 | 3:00.45 | 43847 | 57391 5 | 12:45.17 | 5:08.53 | 57392 | 80544 6 | 17:53.70 | 3:43.65 | 80545 | 97334 7 | 21:37.60 | 1:44.15 | 97335 | 105149 8 | 23:22.00 | 4:31.62 | 105150 | 125536 9 | 27:53.62 | 2:48.58 | 125537 | 138194 10 | 30:42.45 | 4:39.17 | 138195 | 159136 11 | 35:21.62 | 3:20.63 | 159137 | 174199 12 | 38:42.50 | 4:03.70 | 174200 | 192494
Характеристики диапазона извлечения и сообщения об ошибках
Выбранный диапазон
Имя файла E:\Раздачи\Папки\Зеленый свет - Зеленый свет\Зеленый свет - Зеленый свет.wav
Пиковый уровень 100.0 % Скорость извлечения 1.6 X Качество диапазона 100.0 % CRC теста 2C611550 CRC копии 2C611550 Копирование... OK
Ошибок не произошло
AccurateRip: сводка
Трек 1 отсутствует в базе данныхТрек 2 отсутствует в базе данныхТрек 3 отсутствует в базе данныхТрек 4 отсутствует в базе данныхТрек 5 отсутствует в базе данныхТрек 6 отсутствует в базе данныхТрек 7 отсутствует в базе данныхТрек 8 отсутствует в базе данныхТрек 9 отсутствует в базе данныхТрек 10 отсутствует в базе данныхТрек 11 отсутствует в базе данныхТрек 12 отсутствует в базе данных
Ни одного трека нет в базе AccurateRip
Конец отчёта
==== Контрольная сумма отчёта 624F36961EC3A722C540DE57126B3E72454AEF038A9E5A13BD84289E918A7775 ====

Содержание индексной карты (.CUE)

REM GENRE ChansonREM DATE 1997REM DISCID 9C0A060CREM COMMENT "ExactAudioCopy v1.3"PERFORMER "Зеленый свет"TITLE "Зеленый свет"REM COMPOSER ""FILE "Зеленый свет - Зеленый свет.flac" WAVE TRACK 01 AUDIO TITLE "Душа поет" PERFORMER "Зеленый свет" REM COMPOSER "" INDEX 00 00:00:00 INDEX 01 00:00:55 TRACK 02 AUDIO TITLE "Новый год" PERFORMER "Зеленый свет" REM COMPOSER "" INDEX 00 02:46:45 INDEX 01 02:48:05 TRACK 03 AUDIO TITLE "Не могу без тебя" PERFORMER "Зеленый свет" REM COMPOSER "" INDEX 00 05:38:47 INDEX 01 05:40:07 TRACK 04 AUDIO TITLE "Песня для пацанов" PERFORMER "Зеленый свет" REM COMPOSER "" INDEX 00 09:43:12 INDEX 01 09:44:47 TRACK 05 AUDIO TITLE "Россия - Мама" PERFORMER "Зеленый свет" REM COMPOSER "" INDEX 00 12:43:57 INDEX 01 12:45:17 TRACK 06 AUDIO TITLE "Первая любовь" PERFORMER "Зеленый свет" REM COMPOSER "" INDEX 00 17:52:35 INDEX 01 17:53:70 TRACK 07 AUDIO TITLE "А ты ушла..." PERFORMER "Зеленый свет" REM COMPOSER "" INDEX 00 21:36:25 INDEX 01 21:37:60 TRACK 08 AUDIO TITLE "Мой ''Огненный Конь''" PERFORMER "Зеленый свет" REM COMPOSER "" INDEX 00 23:20:40 INDEX 01 23:22:00 TRACK 09 AUDIO TITLE "Мы будем вместе" PERFORMER "Зеленый свет" REM COMPOSER "" INDEX 00 27:52:27 INDEX 01 27:53:62 TRACK 10 AUDIO TITLE "Птицей улетай" PERFORMER "Зеленый свет" REM COMPOSER "" INDEX 00 30:41:10 INDEX 01 30:42:45 TRACK 11 AUDIO TITLE "Как в первый раз" PERFORMER "Зеленый свет" REM COMPOSER "" INDEX 00 35:20:27 INDEX 01 35:21:62 TRACK 12 AUDIO TITLE "Чардаш" PERFORMER "Зеленый свет" REM COMPOSER "" INDEX 00 38:41:15 INDEX 01 38:42:50

Лог проверки качества

-----------------------
DON'T MODIFY THIS FILE
-----------------------
PERFORMER: auCDtect Task Manager, ver. 1.6.0 RC1 build 1.6.0.1Copyright (c) 2008-2010 y-soft. All rights reservedhttp://y-soft.org
ANALYZER: auCDtect: CD records authenticity detector, version 0.8.2Copyright (c) 2004 Oleg Berngardt. All rights reserved.Copyright (c) 2004 Alexander Djourik. All rights reserved.
FILE: Зеленый свет - Зеленый свет.flac Size: 291955973 Hash: 0EA96AF6836321F552D951ABAD890685 Accuracy: -m0 Conclusion: CDDA 99% Signature: 835FF93FB62409C2C6C11D4B531CB8AEA1A0DE4A

Состав

Сергей Найден - вокал, гитара
Владимир Остриков - саксофон
Сергей Новиков - гитара, скрипка,
бас, клавишные


[galltoto.com]_t_5584656.torrent
Торрент: Зарегистрирован ·  [ 2018-07-26 19:32 ] ·  604c4b04c1dffd377a336ecacbe9de9601b7b44f

13 KB

Статус: проверено
Скачан: 1 раз
Размер: 298 MB
Оценка: 
(Голосов: 0)
Сказали спасибо: 0  Спасибо
Похожие темы
[Профиль]    [ЛС]
Показать сообщения:    
Ответить на тему

Текущее время: Сегодня 13:29

Часовой пояс: GMT + 7



Вы не можете начинать темы
Вы не можете отвечать на сообщения
Вы не можете редактировать свои сообщения
Вы не можете удалять свои сообщения
Вы не можете голосовать в опросах
Вы не можете прикреплять файлы к сообщениям
Вы можете скачивать файлы


IMDb: 7 HD Ghost in the Shell: The New Movie | Other Collectable Items | DOOMSDAY CLOCK #1 4th PRINT - DC