Antimatter - Live Between the Earth & Clouds (Bonus DVD) [2017, Acoustic, Alternative Rock, DVD5]

Ответить на тему
Статистика раздачи [Обновить пиров]
Размер:  4.05 GB   |    Зарегистрирован:  6 месяцев 5 дней   |    Скачан:  0 раз

Полного источника не было: Никогда

 
   
 
 
 
Автор Сообщение

galltoto.com

Создавать темы 13-Июл-2018 22:27

[Цитировать]

Antimatter - Live Between the Earth & Clouds-[img=right]http://c.radikal.ru/c16/1805/a1/eb0c3a44425e.jpg[/img]
Страна: UK
Жанр: Acoustic, Alternative Rock
Продолжительность: 01:19:51
Год выхода: 2017
Лейбл: Music In Stone ‎– MIS 107
CD: Antimatter - Live Between the Earth & Clouds - 2017, FLAC (tracks), lossless

Описание: Recorded & filmed before a live audience at 'De Boerderij', Zoetermeer, Netherlands on March 25th 2016
Треклист:
01. Paranova (6:23)
02. Firewalking (8:17)
03. Black Eyed Man (6:46)
04. The Last Laugh (5:15)
05. Monochrome (5:23)
06. Uniformed & Black (4:33)
07. Over Your Shoulder (4:35)
08. Can Of Worms (5:37)
09. Leaving Eden (6:38)
10. Wide Awake In The Concrete Asylum (6:49)
11. The Parade (3:27)
12. Welcome To The Machine (6:44)
13. Stillborn Empires (9:23)
Доп. информация:
Drums – Liam Edwards
Music By, Lyrics By, Vocals, Guitar, Lead Guitar, Producer, Directed By – Mick Moss
Producer, Mastered By – Daniel Cardoso

Разбивка на главы по трекам: есть
Качество : DVD5
Формат файла: DVD video
Видео кодек: MPEG2
Аудио кодек: AC3
Видео: MPEG2 Video 720x576 (16:9)
Аудио: Dolby AC3 48000Hz stereo

DVDinfo

Title: 2017 - Live Between the Earth & CloudsSize: 4.05 Gb ( 4 247 520,00 KBytes ) - DVD-5Enabled regions: 1, 2, 3, 4, 5, 6, 7, 8
VTS_01 : Play Length: 01:19:51 Video: PAL 16:9 (720x576) VBR, Auto Letterboxed Audio: English, AC3, 2/0 (L,R) ch, 192 kbps, Delay 0 mSec
* Menus Information *
VIDEO_TS MenuVideo: PAL 4:3 (720x576) VBRLanguage Unit :
VTS_01 MenuVideo: PAL 16:9 (720x576) VBR Auto LetterboxedLanguage Unit : Subpicture Menu Angle menuLanguage Unit : Subpicture Menu Angle menuLanguage Unit : Subpicture Menu Angle menuLanguage Unit : Subpicture Menu Angle menuLanguage Unit : Subpicture Menu Angle menu

Media infoVTS_01_1

VideoID : 224 (0xE0)Format : MPEG VideoFormat version : Version 2Format profile : Main@MainFormat settings : BVOPFormat settings, BVOP : YesFormat settings, Matrix : DefaultFormat settings, GOP : M=3, N=12Duration : 19 min 55 sBit rate mode : VariableBit rate : 6 850 kb/sMaximum bit rate : 7 500 kb/sWidth : 720 pixelsHeight : 576 pixelsDisplay aspect ratio : 16:9Frame rate : 25.000 FPSStandard : PALColor space : YUVChroma subsampling : 4:2:0Bit depth : 8 bitsScan type : ProgressiveCompression mode : LossyBits/(Pixel*Frame) : 0.661Time code of first frame : 00:00:00:00Time code source : Group of pictures headerGOP, Open/Closed : OpenGOP, Open/Closed of first f : ClosedStream size : 976 MiB (95%)
AudioID : 189 (0xBD)-128 (0x80)Format : AC-3Format/Info : Audio Coding 3Muxing mode : DVD-VideoDuration : 19 min 55 sBit rate mode : ConstantBit rate : 192 kb/sChannel(s) : 2 channelsChannel positions : Front: L RSampling rate : 48.0 kHzFrame rate : 31.250 FPS (1536 SPF)Bit depth : 16 bitsCompression mode : LossyStream size : 27.4 MiB (3%)Service kind : Complete Main

VTS_01_2

Format : MPEG-PSFile size : 1 024 MiBDuration : 19 min 39 sOverall bit rate mode : VariableOverall bit rate : 7 285 kb/s
VideoID : 224 (0xE0)Format : MPEG VideoFormat version : Version 2Format profile : Main@MainFormat settings : BVOPFormat settings, BVOP : YesFormat settings, Matrix : DefaultFormat settings, GOP : M=3, N=12Duration : 19 min 38 sBit rate mode : VariableBit rate : 6 948 kb/sMaximum bit rate : 7 500 kb/sWidth : 720 pixelsHeight : 576 pixelsDisplay aspect ratio : 16:9Frame rate : 25.000 FPSStandard : PALColor space : YUVChroma subsampling : 4:2:0Bit depth : 8 bitsScan type : ProgressiveCompression mode : LossyBits/(Pixel*Frame) : 0.670Time code of first frame : 00:19:55:17Time code source : Group of pictures headerGOP, Open/Closed : OpenStream size : 977 MiB (95%)
AudioID : 189 (0xBD)-128 (0x80)Format : AC-3Format/Info : Audio Coding 3Muxing mode : DVD-VideoDuration : 19 min 39 sBit rate mode : ConstantBit rate : 192 kb/sChannel(s) : 2 channelsChannel positions : Front: L RSampling rate : 48.0 kHzFrame rate : 31.250 FPS (1536 SPF)Bit depth : 16 bitsCompression mode : LossyDelay relative to video : -336 msStream size : 27.0 MiB (3%)Service kind : Complete Main

VTS_01_3

Format : MPEG-PSFile size : 1 024 MiBDuration : 19 min 28 sOverall bit rate mode : VariableOverall bit rate : 7 354 kb/s
VideoID : 224 (0xE0)Format : MPEG VideoFormat version : Version 2Format profile : Main@MainFormat settings : BVOPFormat settings, BVOP : YesFormat settings, Matrix : DefaultFormat settings, GOP : M=3, N=12Duration : 19 min 27 sBit rate mode : VariableBit rate : 7 016 kb/sMaximum bit rate : 7 500 kb/sWidth : 720 pixelsHeight : 576 pixelsDisplay aspect ratio : 16:9Frame rate : 25.000 FPSStandard : PALColor space : YUVChroma subsampling : 4:2:0Bit depth : 8 bitsScan type : ProgressiveCompression mode : LossyBits/(Pixel*Frame) : 0.677Time code of first frame : 00:39:35:01Time code source : Group of pictures headerGOP, Open/Closed : OpenStream size : 976 MiB (95%)
AudioID : 189 (0xBD)-128 (0x80)Format : AC-3Format/Info : Audio Coding 3Muxing mode : DVD-VideoDuration : 19 min 28 sBit rate mode : ConstantBit rate : 192 kb/sChannel(s) : 2 channelsChannel positions : Front: L RSampling rate : 48.0 kHzFrame rate : 31.250 FPS (1536 SPF)Bit depth : 16 bitsCompression mode : LossyDelay relative to video : -592 msStream size : 26.7 MiB (3%)Service kind : Complete Main

VTS_01_4

Format : MPEG-PSFile size : 1 024 MiBDuration : 19 min 43 sOverall bit rate mode : VariableOverall bit rate : 7 258 kb/s
VideoID : 224 (0xE0)Format : MPEG VideoFormat version : Version 2Format profile : Main@MainFormat settings : BVOPFormat settings, BVOP : YesFormat settings, Matrix : DefaultFormat settings, GOP : M=3, N=12Duration : 19 min 43 sBit rate mode : VariableBit rate : 6 921 kb/sMaximum bit rate : 7 500 kb/sWidth : 720 pixelsHeight : 576 pixelsDisplay aspect ratio : 16:9Frame rate : 25.000 FPSStandard : PALColor space : YUVChroma subsampling : 4:2:0Bit depth : 8 bitsScan type : ProgressiveCompression mode : LossyBits/(Pixel*Frame) : 0.668Time code of first frame : 00:59:02:22Time code source : Group of pictures headerGOP, Open/Closed : OpenStream size : 976 MiB (95%)
AudioID : 189 (0xBD)-128 (0x80)Format : AC-3Format/Info : Audio Coding 3Muxing mode : DVD-VideoDuration : 19 min 43 sBit rate mode : ConstantBit rate : 192 kb/sChannel(s) : 2 channelsChannel positions : Front: L RSampling rate : 48.0 kHzFrame rate : 31.250 FPS (1536 SPF)Bit depth : 16 bitsCompression mode : LossyDelay relative to video : -400 msStream size : 27.1 MiB (3%)Service kind : Complete Main

VTS_01_5

Format : MPEG-PSFile size : 51.9 MiBDuration : 1 min 4 sOverall bit rate mode : VariableOverall bit rate : 6 731 kb/s
VideoID : 224 (0xE0)Format : MPEG VideoFormat version : Version 2Format profile : Main@MainFormat settings : BVOPFormat settings, BVOP : YesFormat settings, Matrix : DefaultFormat settings, GOP : M=3, N=12Duration : 1 min 4 sBit rate mode : VariableBit rate : 6 405 kb/sMaximum bit rate : 7 500 kb/sWidth : 720 pixelsHeight : 576 pixelsDisplay aspect ratio : 16:9Frame rate : 25.000 FPSStandard : PALColor space : YUVChroma subsampling : 4:2:0Bit depth : 8 bitsScan type : ProgressiveCompression mode : LossyBits/(Pixel*Frame) : 0.618Time code of first frame : 01:18:46:14Time code source : Group of pictures headerGOP, Open/Closed : OpenStream size : 49.4 MiB (95%)
AudioID : 189 (0xBD)-128 (0x80)Format : AC-3Format/Info : Audio Coding 3Muxing mode : DVD-VideoDuration : 1 min 4 sBit rate mode : ConstantBit rate : 192 kb/sChannel(s) : 2 channelsChannel positions : Front: L RSampling rate : 48.0 kHzFrame rate : 31.250 FPS (1536 SPF)Bit depth : 16 bitsCompression mode : LossyDelay relative to video : -464 msStream size : 1.48 MiB (3%)Service kind : Complete Main

Скриншоты меню

Скриншоты



[galltoto.com]_t_5567950.torrent
Торрент: Зарегистрирован ·  [ 2018-07-13 22:26 ] ·  dcefe587f9102a8881d90104e2c4d7d9ce540073

11 KB

Статус: проверено
Скачан: 0 раз
Размер: 4.05 GB
Оценка: 
(Голосов: 0)
Сказали спасибо: 0  Спасибо
Похожие темы
[Профиль]    [ЛС]
Показать сообщения:    
Ответить на тему

Текущее время: Сегодня 13:42

Часовой пояс: GMT + 7



Вы не можете начинать темы
Вы не можете отвечать на сообщения
Вы не можете редактировать свои сообщения
Вы не можете удалять свои сообщения
Вы не можете голосовать в опросах
Вы не можете прикреплять файлы к сообщениям
Вы можете скачивать файлы


Tell Me a Story - Temporada 1 Capitulo 9 Descargar | IMDb: 6 HD Backstabbing for Beginners | Camera Drone Parts & Accs