(Fantasy Epic Dark Ambient | Abstract | Black Metal) [CD] Uruk-Hai - Northern Lights (Limited Edition, Reissue 2011) - 2005 FLAC (image+.cue), lossless

Ответить на тему
Статистика раздачи [Обновить пиров]
Размер:  333 MB   |    Зарегистрирован:  7 месяцев 1 день   |    Скачан:  0 раз

Полного источника не было: Никогда

 
   
 
 
 
Автор Сообщение

galltoto.com

Создавать темы 16-Июн-2018 14:58

[Цитировать]

Uruk-Hai - Northern Lights



• Жанр: Dungeon Synth | Epic Dark Ambient | Abstract
• Носитель: CD
• Страна-производитель диска (релиза):Russia
• Год издания: 2005 (2011)
• Издатель (номер по каталогу) Valgriind ‎– VG47
• Страна исполнителя (группы): Austria
• Аудиокодек: FLAC (*.flac)
• Тип рипа: image+.cue
• Продолжительность: 01:13:15
• Источник (релизер): whirlzzumm ®
• Наличие сканов: да

01. Ancient Pride {00:21:24}
02. Northhammer {00:09:22}
03. Mount-Doom {00:20:49}
04. Iceland {00:06:41}
05. May It Be (Enya cover) {00:03:11}
06. Hermodr a Helferd (Burzum Cover) {00:02:55}
07. The Plague {00:08:49}
--

Лог создания рипа

Exact Audio Copy V1.0 beta 3 from 29. August 2011
Отчёт EAC об извлечении, выполненном 16. января 2018, 7:45
Uruk-Hai / Northern Lights (Limited Edition, Reissue 2011)
Дисковод: ASUS DRW-24D5MT Adapter: 0 ID: 0
Режим чтения : ДостоверностьИспользование точного потока : ДаОтключение кэша аудио : ДаИспользование указателей C2 : Нет
Коррекция смещения при чтении : 6Способность читать области Lead-in и Lead-out : НетЗаполнение пропущенных сэмплов тишиной : ДаУдаление блоков с тишиной в начале и конце : НетПри вычислениях CRC использовались нулевые сэмплы : ДаИнтерфейс : Встроенный Win32-интерфейс для Win NT/2000
Выходной формат : Пользовательский кодировщикВыбранный битрейт : 1024 kBit/sКачество : ВысокийДобавление ID3-тега : НетУтилита сжатия : C:\Program Files (x86)\FLAC\flac.exeДополнительные параметры : -V -8 -T "Date=%year%" -T "Genre=%genre%" %source%
TOC извлечённого CD
Трек | Старт | Длительность | Начальный сектор | Конечный сектор --------------------------------------------------------------------- 1 | 0:00.00 | 21:24.37 | 0 | 96336 2 | 21:24.37 | 9:22.61 | 96337 | 138547 3 | 30:47.23 | 20:49.68 | 138548 | 232290 4 | 51:37.16 | 6:41.49 | 232291 | 262414 5 | 58:18.65 | 3:11.37 | 262415 | 276776 6 | 61:30.27 | 2:55.65 | 276777 | 289966 7 | 64:26.17 | 8:49.02 | 289967 | 329643
Характеристики диапазона извлечения и сообщения об ошибках
Выбранный диапазон
Имя файла F:\FLAC 1 whirlzzumm\Uruk-Hai - Northern Lights (Limited Edition, Reissue 2011).wav
Пиковый уровень 73.9 % Скорость извлечения 3.4 X Качество диапазона 100.0 % CRC теста 84ADC808 CRC копии 84ADC808 Копирование... OK
Ошибок не произошло
AccurateRip: сводка
Трек 1 : извлечено точно (доверие 1) [DED2C805] (AR v2)Трек 2 : извлечено точно (доверие 1) [D6F904E6] (AR v2)Трек 3 : извлечено точно (доверие 1) [9F91B5EE] (AR v2)Трек 4 : извлечено точно (доверие 1) [17E26F47] (AR v2)Трек 5 : извлечено точно (доверие 1) [4A94E1B8] (AR v2)Трек 6 : извлечено точно (доверие 1) [1D7C6635] (AR v2)Трек 7 : извлечено точно (доверие 1) [53EFCEB6] (AR v2)
Все треки извлечены точно
Конец отчёта
==== Контрольная сумма отчёта 9518D3AD164FBCC7FFCF63807E9A1CF0539E920EE70B76DB337C486D754AC488 ====

Содержание индексной карты

REM GENRE "Dark Ambient"REM DATE 2005REM DISCID 73112B07REM COMMENT "ExactAudioCopy v1.0b3"PERFORMER "Uruk-Hai"TITLE "Northern Lights (Limited Edition, Reissue 2011)"FILE "Uruk-Hai - Northern Lights (Limited Edition, Reissue 2011).flac" WAVE TRACK 01 AUDIO TITLE "Ancient Pride" PERFORMER "Uruk-Hai" INDEX 01 00:00:00 TRACK 02 AUDIO TITLE "Northhammer" PERFORMER "Uruk-Hai" INDEX 01 21:24:37 TRACK 03 AUDIO TITLE "Mount-Doom" PERFORMER "Uruk-Hai" INDEX 01 30:47:23 TRACK 04 AUDIO TITLE "Iceland" PERFORMER "Uruk-Hai" INDEX 01 51:37:16 TRACK 05 AUDIO TITLE "May It Be (Enya cover)" PERFORMER "Uruk-Hai" INDEX 01 58:18:65 TRACK 06 AUDIO TITLE "Hermodr a Helferd (Burzum Cover)" PERFORMER "Uruk-Hai" INDEX 01 61:30:27 TRACK 07 AUDIO TITLE "The Plague" PERFORMER "Uruk-Hai" INDEX 01 64:26:17

Лог проверки качества

-----------------------
DON'T MODIFY THIS FILE
-----------------------
PERFORMER: auCDtect Task Manager, ver. 1.5.1RC3 build 1.5.1.4Copyright (c) 2008-2010 y-soft. All rights reservedhttp://y-soft.org
ANALYZER: auCDtect: CD records authenticity detector, version 0.8.2Copyright (c) 2004 Oleg Berngardt. All rights reserved.Copyright (c) 2004 Alexander Djourik. All rights reserved.
FILE: Uruk-Hai - Northern Lights (Limited Edition, Reissue 2011).flac Size: 331958711 Hash: 0DDB0E22B845F763B36B6DBD01DBE8BD Accuracy: -m0 Conclusion: CDDA 100% Signature: 2B95D812E363CC7381F7BCA5BF77AFB9ED59B763

Скриншот спектра частот

--


[galltoto.com]_t_5574870.torrent
Торрент: Зарегистрирован ·  [ 2018-06-16 14:57 ] ·  46b874e6d800da188f4541525c03d86d4f223a3b

14 KB

Статус: проверено
Скачан: 0 раз
Размер: 333 MB
Оценка: 
(Голосов: 0)
Сказали спасибо: 0  Спасибо
Похожие темы
[Профиль]    [ЛС]
Показать сообщения:    
Ответить на тему

Текущее время: Сегодня 12:42

Часовой пояс: GMT + 7



Вы не можете начинать темы
Вы не можете отвечать на сообщения
Вы не можете редактировать свои сообщения
Вы не можете удалять свои сообщения
Вы не можете голосовать в опросах
Вы не можете прикреплять файлы к сообщениям
Вы можете скачивать файлы


Packt - Gaining Access and Covering Your Tracks with Kali Linux Oct2018 | All Listings | O Último Cavaleiro - Legendado Torrent (2018) Download BluRay 720p