(Fantasy Epic Dark Ambient | Abstract | Black Metal) [CD] Uruk-Hai - And All The Magic & Might He Brought - 2013 FLAC (image+.cue), lossless

Ответить на тему
Статистика раздачи [Обновить пиров]
Размер:  458 MB   |    Зарегистрирован:  7 месяцев 1 день   |    Скачан:  0 раз

Полного источника не было: Никогда

 
   
 
 
 
Автор Сообщение

galltoto.com

Создавать темы 16-Июн-2018 14:58

[Цитировать]

Uruk-Hai - And All The Magic & Might He Brought



• Жанр: Fantasy Epic Dark Ambient | Abstract | Black Metal
• Носитель: CD
• Страна-производитель диска (релиза): Austria
• Год издания: 2013 (Digipak edition)
• Издатель (номер по каталогу): W.A.R. Productions ‎– WAR078
• Страна исполнителя (группы): Austria
• Аудиокодек: FLAC (*.flac)
• Тип рипа: image+.cue
• Продолжительность: 01:06:48
• Источник (релизер): whirlzzumm ®
• Наличие сканов: да

01. From The Ashes {00:03:37}
02. Far Away {00:06:00}
03. Ancient Wisdom {00:05:13}
04. Rise And Fall {00:04:57}
05. Fallen Leaves {00:03:42}
06. The Door To The Paths Of The Dead {00:07:06}
07. Valinor {00:02:29}
08. Immortality {00:14:04}
09. Wrath {00:04:07}
10. March Of The Forest Elves {00:04:24}
11. Legolas {00:02:33}
12. Glaurung {00:04:15}
13. The End Of The Road {00:04:15}
--

Лог создания рипа

Exact Audio Copy V1.0 beta 3 from 29. August 2011
Отчёт EAC об извлечении, выполненном 13. января 2018, 23:25
Uruk-Hai / ...And All The Magic & Might He Brought... (Digipak edition)
Дисковод: ASUS DRW-24D5MT Adapter: 0 ID: 0
Режим чтения : ДостоверностьИспользование точного потока : ДаОтключение кэша аудио : ДаИспользование указателей C2 : Нет
Коррекция смещения при чтении : 6Способность читать области Lead-in и Lead-out : НетЗаполнение пропущенных сэмплов тишиной : ДаУдаление блоков с тишиной в начале и конце : НетПри вычислениях CRC использовались нулевые сэмплы : ДаИнтерфейс : Встроенный Win32-интерфейс для Win NT/2000
Выходной формат : Пользовательский кодировщикВыбранный битрейт : 1024 kBit/sКачество : ВысокийДобавление ID3-тега : НетУтилита сжатия : C:\Program Files (x86)\FLAC\flac.exeДополнительные параметры : -V -8 -T "Date=%year%" -T "Genre=%genre%" %source%
TOC извлечённого CD
Трек | Старт | Длительность | Начальный сектор | Конечный сектор --------------------------------------------------------------------- 1 | 0:00.00 | 3:39.06 | 0 | 16430 2 | 3:39.06 | 6:02.60 | 16431 | 43640 3 | 9:41.66 | 5:15.21 | 43641 | 67286 4 | 14:57.12 | 4:59.24 | 67287 | 89735 5 | 19:56.36 | 3:44.48 | 89736 | 106583 6 | 23:41.09 | 7:08.58 | 106584 | 138741 7 | 30:49.67 | 2:30.74 | 138742 | 150065 8 | 33:20.66 | 14:06.29 | 150066 | 213544 9 | 47:27.20 | 4:09.57 | 213545 | 232276 10 | 51:37.02 | 4:26.65 | 232277 | 252291 11 | 56:03.67 | 2:35.34 | 252292 | 263950 12 | 58:39.26 | 4:17.26 | 263951 | 283251 13 | 62:56.52 | 4:17.24 | 283252 | 302550
Характеристики диапазона извлечения и сообщения об ошибках
Выбранный диапазон
Имя файла F:\FLAC 1 whirlzzumm\Uruk-Hai - ...And All The Magic & Might He Brought... (Digipak edition).wav
Пиковый уровень 98.8 % Скорость извлечения 7.8 X Качество диапазона 100.0 % CRC теста 96CAF00A CRC копии 96CAF00A Копирование... OK
Ошибок не произошло
AccurateRip: сводка
Трек 1 : извлечено точно (доверие 2) [CCD3DCF1] (AR v2)Трек 2 : извлечено точно (доверие 2) [E2FEC998] (AR v2)Трек 3 : извлечено точно (доверие 2) [79B5F17A] (AR v2)Трек 4 : извлечено точно (доверие 2) [4DED5670] (AR v2)Трек 5 : извлечено точно (доверие 2) [2CCAEA29] (AR v2)Трек 6 : извлечено точно (доверие 2) [97261E0D] (AR v2)Трек 7 : извлечено точно (доверие 2) [C178871A] (AR v2)Трек 8 : извлечено точно (доверие 2) [D530D2EF] (AR v2)Трек 9 : извлечено точно (доверие 2) [4B7FD265] (AR v2)Трек 10 : извлечено точно (доверие 2) [934693FC] (AR v2)Трек 11 : извлечено точно (доверие 2) [68948BB0] (AR v2)Трек 12 : извлечено точно (доверие 2) [6D3789EB] (AR v2)Трек 13 : извлечено точно (доверие 2) [41563CB6] (AR v2)
Все треки извлечены точно
Конец отчёта
==== Контрольная сумма отчёта 7DFEB8BB17AAA0F6D4A294F693438F54D98C4C559D675C0E5F7A6DBE7AF69FA2 ====

Содержание индексной карты

REM GENRE "Battle Ambient"REM DATE 2013REM DISCID C20FC20DREM COMMENT "ExactAudioCopy v1.0b3"PERFORMER "Uruk-Hai"TITLE "...And All The Magic & Might He Brought... (Digipak edition)"FILE "Uruk-Hai - ...And All The Magic & Might He Brought... (Digipak edition).flac" WAVE TRACK 01 AUDIO TITLE "From The Ashes" PERFORMER "Uruk-Hai" INDEX 01 00:00:00 TRACK 02 AUDIO TITLE "Far Away" PERFORMER "Uruk-Hai" INDEX 00 03:37:06 INDEX 01 03:39:06 TRACK 03 AUDIO TITLE "Ancient Wisdom" PERFORMER "Uruk-Hai" INDEX 00 09:39:66 INDEX 01 09:41:66 TRACK 04 AUDIO TITLE "Rise And Fall" PERFORMER "Uruk-Hai" INDEX 00 14:55:12 INDEX 01 14:57:12 TRACK 05 AUDIO TITLE "Fallen Leaves" PERFORMER "Uruk-Hai" INDEX 00 19:54:36 INDEX 01 19:56:36 TRACK 06 AUDIO TITLE "The Door To The Paths Of The Dead" PERFORMER "Uruk-Hai" INDEX 00 23:39:09 INDEX 01 23:41:09 TRACK 07 AUDIO TITLE "Valinor" PERFORMER "Uruk-Hai" INDEX 00 30:47:67 INDEX 01 30:49:67 TRACK 08 AUDIO TITLE "Immortality" PERFORMER "Uruk-Hai" INDEX 00 33:18:73 INDEX 01 33:20:66 TRACK 09 AUDIO TITLE "Wrath" PERFORMER "Uruk-Hai" INDEX 00 47:25:20 INDEX 01 47:27:20 TRACK 10 AUDIO TITLE "March Of The Forest Elves" PERFORMER "Uruk-Hai" INDEX 00 51:35:02 INDEX 01 51:37:02 TRACK 11 AUDIO TITLE "Legolas" PERFORMER "Uruk-Hai" INDEX 00 56:01:67 INDEX 01 56:03:67 TRACK 12 AUDIO TITLE "Glaurung" PERFORMER "Uruk-Hai" INDEX 00 58:37:27 INDEX 01 58:39:26 TRACK 13 AUDIO TITLE "The End Of The Road" PERFORMER "Uruk-Hai" INDEX 00 62:54:52 INDEX 01 62:56:52

Лог проверки качества

-----------------------
DON'T MODIFY THIS FILE
-----------------------
PERFORMER: auCDtect Task Manager, ver. 1.5.1RC3 build 1.5.1.4Copyright (c) 2008-2010 y-soft. All rights reservedhttp://y-soft.org
ANALYZER: auCDtect: CD records authenticity detector, version 0.8.2Copyright (c) 2004 Oleg Berngardt. All rights reserved.Copyright (c) 2004 Alexander Djourik. All rights reserved.
FILE: Uruk-Hai - ...And All The Magic & Might He Brought... (Digipak edition).flac Size: 446627241 Hash: D465A579CAFCFE0D5844DF90289560EA Accuracy: -m0 Conclusion: CDDA 100% Signature: 02E90634960E87FB10B51524900400D58F42D100

Скриншот спектра частот

--


[galltoto.com]_t_5574873.torrent
Торрент: Зарегистрирован ·  [ 2018-06-16 14:57 ] ·  adb616446a3810f7f1e0661d0b2cb61674f5f8d5

19 KB

Статус: проверено
Скачан: 0 раз
Размер: 458 MB
Оценка: 
(Голосов: 0)
Сказали спасибо: 0  Спасибо
Похожие темы
[Профиль]    [ЛС]
Показать сообщения:    
Ответить на тему

Текущее время: Сегодня 12:42

Часовой пояс: GMT + 7



Вы не можете начинать темы
Вы не можете отвечать на сообщения
Вы не можете редактировать свои сообщения
Вы не можете удалять свои сообщения
Вы не можете голосовать в опросах
Вы не можете прикреплять файлы к сообщениям
Вы можете скачивать файлы


Mr. Robot | Australian Sterling Silver Zygmunt Libucha Goanna Lizard Paper Knife | The Princess and the Matchmaker