(Fantasy Epic Dark Ambient | Abstract | Black Metal) [CD] Uruk-Hai - The Fellowship - 2014 FLAC (image+.cue), lossless

Ответить на тему
Статистика раздачи [Обновить пиров]
Размер:  456 MB   |    Зарегистрирован:  7 месяцев 1 день   |    Скачан:  0 раз

Полного источника не было: Никогда

 
   
 
 
 
Автор Сообщение

galltoto.com

Создавать темы 16-Июн-2018 14:58

[Цитировать]

Uruk-Hai - The Fellowship



• Жанр: Dungeon Synth | Epic Dark Ambient | Abstract
• Носитель: CD
• Страна-производитель диска (релиза): USA
• Год издания: 2014
• Издатель (номер по каталогу): Metallic Media ‎– METALLIC 023
• Страна исполнителя (группы): Austria
• Аудиокодек: FLAC (*.flac)
• Тип рипа: image+.cue
• Продолжительность: 01:18:29
• Источник (релизер): whirlzzumm ®
• Наличие сканов: да

01. The Red Dawn {00:05:21}
02. Broken Blade {00:03:12}
03. Mordor Coldness {00:08:12}
04. Immortal Flame {00:05:24}
05. Ring Of Water {00:03:21}
06. A Blade Of Fire {00:04:42}
07. The Wars Of Beleriand {00:06:17}
08. The Great Battle {00:03:42}
09. Mirkwood {00:06:48}
10. The Stone Of Erech {00:03:19}
11. Before The Battle {00:06:24}
12. The White Tower {00:06:06}
13. The Iron Doors Of angband {00:08:10}
14. Walar - The Rulers of Arda {00:07:28}
--

Лог создания рипа

Exact Audio Copy V1.0 beta 3 from 29. August 2011
Отчёт EAC об извлечении, выполненном 21. января 2018, 20:28
Uruk-Hai / The Fellowship
Дисковод: ASUS DRW-24D5MT Adapter: 0 ID: 0
Режим чтения : ДостоверностьИспользование точного потока : ДаОтключение кэша аудио : ДаИспользование указателей C2 : Нет
Коррекция смещения при чтении : 6Способность читать области Lead-in и Lead-out : НетЗаполнение пропущенных сэмплов тишиной : ДаУдаление блоков с тишиной в начале и конце : НетПри вычислениях CRC использовались нулевые сэмплы : ДаИнтерфейс : Встроенный Win32-интерфейс для Win NT/2000
Выходной формат : Пользовательский кодировщикВыбранный битрейт : 1024 kBit/sКачество : ВысокийДобавление ID3-тега : НетУтилита сжатия : C:\Program Files (x86)\FLAC\flac.exeДополнительные параметры : -V -8 -T "Date=%year%" -T "Genre=%genre%" %source%
TOC извлечённого CD
Трек | Старт | Длительность | Начальный сектор | Конечный сектор --------------------------------------------------------------------- 1 | 0:00.00 | 5:21.39 | 0 | 24113 2 | 5:21.39 | 3:12.00 | 24114 | 38513 3 | 8:33.39 | 8:12.27 | 38514 | 75440 4 | 16:45.66 | 5:24.72 | 75441 | 99812 5 | 22:10.63 | 3:21.45 | 99813 | 114932 6 | 25:32.33 | 4:42.00 | 114933 | 136082 7 | 30:14.33 | 6:17.00 | 136083 | 164357 8 | 36:31.33 | 3:42.00 | 164358 | 181007 9 | 40:13.33 | 6:48.00 | 181008 | 211607 10 | 47:01.33 | 3:19.18 | 211608 | 226550 11 | 50:20.51 | 6:24.00 | 226551 | 255350 12 | 56:44.51 | 6:06.00 | 255351 | 282800 13 | 62:50.51 | 8:10.33 | 282801 | 319583 14 | 71:01.09 | 7:28.00 | 319584 | 353183
Характеристики диапазона извлечения и сообщения об ошибках
Выбранный диапазон
Имя файла F:\FLAC 1 whirlzzumm\Uruk-Hai - The Fellowship.wav
Пиковый уровень 100.0 % Скорость извлечения 8.4 X Качество диапазона 100.0 % CRC теста AE9B78C1 CRC копии AE9B78C1 Копирование... OK
Ошибок не произошло
AccurateRip: сводка
Трек 1 : извлечено точно (доверие 2) [C8D995C8] (AR v2)Трек 2 : извлечено точно (доверие 2) [528E42D1] (AR v2)Трек 3 : извлечено точно (доверие 2) [9BBB8504] (AR v2)Трек 4 : извлечено точно (доверие 2) [D0282E17] (AR v2)Трек 5 : извлечено точно (доверие 2) [90F645C5] (AR v2)Трек 6 : извлечено точно (доверие 2) [BD7AAC99] (AR v2)Трек 7 : извлечено точно (доверие 2) [04DBA29B] (AR v2)Трек 8 : извлечено точно (доверие 2) [C80A2D6C] (AR v2)Трек 9 : извлечено точно (доверие 2) [6FC73578] (AR v2)Трек 10 : извлечено точно (доверие 2) [0E91B009] (AR v2)Трек 11 : извлечено точно (доверие 2) [8D9B898E] (AR v2)Трек 12 : извлечено точно (доверие 2) [411D5362] (AR v2)Трек 13 : извлечено точно (доверие 2) [6B279A4F] (AR v2)Трек 14 : извлечено точно (доверие 2) [F2D97F5E] (AR v2)
Все треки извлечены точно
Конец отчёта
==== Контрольная сумма отчёта 155FE50894650E90E17E6682D433174849175A3B742DFEC6E45618C7D89DEA7B ====

Содержание индексной карты

REM GENRE "Battle Ambient, Black Metal"REM DATE 2014REM DISCID A312650EREM COMMENT "ExactAudioCopy v1.0b3"PERFORMER "Uruk-Hai"TITLE "The Fellowship"FILE "Uruk-Hai - The Fellowship.flac" WAVE TRACK 01 AUDIO TITLE "The Red Dawn" PERFORMER "Uruk-Hai" FLAGS DCP INDEX 01 00:00:00 TRACK 02 AUDIO TITLE "Broken Blade" PERFORMER "Uruk-Hai" FLAGS DCP INDEX 01 05:21:39 TRACK 03 AUDIO TITLE "Mordor Coldness" PERFORMER "Uruk-Hai" FLAGS DCP INDEX 01 08:33:39 TRACK 04 AUDIO TITLE "Immortal Flame" PERFORMER "Uruk-Hai" FLAGS DCP INDEX 01 16:45:66 TRACK 05 AUDIO TITLE "Ring Of Water" PERFORMER "Uruk-Hai" FLAGS DCP INDEX 01 22:10:63 TRACK 06 AUDIO TITLE "A Blade Of Fire" PERFORMER "Uruk-Hai" FLAGS DCP INDEX 01 25:32:33 TRACK 07 AUDIO TITLE "The Wars Of Beleriand" PERFORMER "Uruk-Hai" FLAGS DCP INDEX 01 30:14:33 TRACK 08 AUDIO TITLE "The Great Battle" PERFORMER "Uruk-Hai" FLAGS DCP INDEX 01 36:31:33 TRACK 09 AUDIO TITLE "Mirkwood" PERFORMER "Uruk-Hai" FLAGS DCP INDEX 01 40:13:33 TRACK 10 AUDIO TITLE "The Stone Of Erech" PERFORMER "Uruk-Hai" FLAGS DCP INDEX 01 47:01:33 TRACK 11 AUDIO TITLE "Before The Battle" PERFORMER "Uruk-Hai" FLAGS DCP INDEX 01 50:20:51 TRACK 12 AUDIO TITLE "The White Tower" PERFORMER "Uruk-Hai" FLAGS DCP INDEX 01 56:44:51 TRACK 13 AUDIO TITLE "The Iron Doors Of angband" PERFORMER "Uruk-Hai" FLAGS DCP INDEX 01 62:50:51 TRACK 14 AUDIO TITLE "Walar - The Rulers of Arda" PERFORMER "Uruk-Hai" FLAGS DCP INDEX 01 71:01:09

Лог проверки качества

-----------------------
DON'T MODIFY THIS FILE
-----------------------
PERFORMER: auCDtect Task Manager, ver. 1.5.1RC3 build 1.5.1.4Copyright (c) 2008-2010 y-soft. All rights reservedhttp://y-soft.org
ANALYZER: auCDtect: CD records authenticity detector, version 0.8.2Copyright (c) 2004 Oleg Berngardt. All rights reserved.Copyright (c) 2004 Alexander Djourik. All rights reserved.
FILE: Uruk-Hai - The Fellowship.flac Size: 462040450 Hash: 409E8093460B5223DBD090DE407BD48B Accuracy: -m0 Conclusion: CDDA 99% Signature: 8EE9CE6C99961E076EBE7C66F0E2CB43AA5BB58D

Скриншот спектра частот

--


[galltoto.com]_t_5574885.torrent
Торрент: Зарегистрирован ·  [ 2018-06-16 14:57 ] ·  887e4d202addbbd9115bb53c4ed7969a67999bfa

19 KB

Статус: проверено
Скачан: 0 раз
Размер: 456 MB
Оценка: 
(Голосов: 0)
Сказали спасибо: 0  Спасибо
Похожие темы
[Профиль]    [ЛС]
Показать сообщения:    
Ответить на тему

Текущее время: Сегодня 12:42

Часовой пояс: GMT + 7



Вы не можете начинать темы
Вы не можете отвечать на сообщения
Вы не можете редактировать свои сообщения
Вы не можете удалять свои сообщения
Вы не можете голосовать в опросах
Вы не можете прикреплять файлы к сообщениям
Вы можете скачивать файлы


Kim Kardashian - Love Magazine Spring - Summer 2015 | Sora no Otoshimono: Tokeijikake no Angeloid | (Ambient, Drone, Electroacou...