(Fantasy Epic Dark Ambient | Abstract | Black Metal) [CD] Uruk-Hai - Elbenstahl - 2015 FLAC (image+.cue), lossless

Ответить на тему
Статистика раздачи [Обновить пиров]
Размер:  443 MB   |    Зарегистрирован:  7 месяцев 1 день   |    Скачан:  0 раз

Полного источника не было: Никогда

 
   
 
 
 
Автор Сообщение

galltoto.com

Создавать темы 16-Июн-2018 14:58

[Цитировать]

Uruk-Hai - Elbenstahl



• Жанр: Dungeon Synth | Epic Dark Ambient | Abstract
• Носитель: CD
• Страна-производитель диска (релиза): USA
• Год издания: 2015
• Издатель (номер по каталогу): Metallic Media ‎– METALLIC 050
• Страна исполнителя (группы): Austria
• Аудиокодек: FLAC (*.flac)
• Тип рипа: image+.cue
• Продолжительность: 01:15:41
• Источник (релизер): whirlzzumm ®
• Наличие сканов: да

01. Blessed Realm {00:08:13}
02. Shadown Dance {00:04:12}
03. Return Of The Fallen Warriors {00:04:58}
04. Magic {00:12:00}
05. At The Heart Of The Forest {00:06:24}
06. Elbisch Blut {00:03:33}
07. Western Shores {00:06:00}
08. The Orc {00:08:00}
09. The Golden Age Of Gondor {00:07:30}
10. The Ash Mountains {00:10:47}
11. The Orc (Pt. 2) {00:02:39}
12. Dark Shadows (Outro) {00:01:22}
--

Лог создания рипа

Exact Audio Copy V1.0 beta 3 from 29. August 2011
Отчёт EAC об извлечении, выполненном 22. января 2018, 10:48
Uruk-Hai / Elbenstahl
Дисковод: ASUS DRW-24D5MT Adapter: 0 ID: 0
Режим чтения : ДостоверностьИспользование точного потока : ДаОтключение кэша аудио : ДаИспользование указателей C2 : Нет
Коррекция смещения при чтении : 6Способность читать области Lead-in и Lead-out : НетЗаполнение пропущенных сэмплов тишиной : ДаУдаление блоков с тишиной в начале и конце : НетПри вычислениях CRC использовались нулевые сэмплы : ДаИнтерфейс : Встроенный Win32-интерфейс для Win NT/2000
Выходной формат : Пользовательский кодировщикВыбранный битрейт : 1024 kBit/sКачество : ВысокийДобавление ID3-тега : НетУтилита сжатия : C:\Program Files (x86)\FLAC\flac.exeДополнительные параметры : -V -8 -T "Date=%year%" -T "Genre=%genre%" %source%
TOC извлечённого CD
Трек | Старт | Длительность | Начальный сектор | Конечный сектор --------------------------------------------------------------------- 1 | 0:00.00 | 8:15.65 | 0 | 37189 2 | 8:15.65 | 4:14.00 | 37190 | 56239 3 | 12:29.65 | 5:00.50 | 56240 | 78789 4 | 17:30.40 | 12:02.00 | 78790 | 132939 5 | 29:32.40 | 6:26.00 | 132940 | 161889 6 | 35:58.40 | 3:35.25 | 161890 | 178039 7 | 39:33.65 | 6:02.00 | 178040 | 205189 8 | 45:35.65 | 8:02.00 | 205190 | 241339 9 | 53:37.65 | 7:32.00 | 241340 | 275239 10 | 61:09.65 | 10:49.50 | 275240 | 323964 11 | 71:59.40 | 2:41.64 | 323965 | 336103 12 | 74:41.29 | 1:24.00 | 336104 | 342403
Характеристики диапазона извлечения и сообщения об ошибках
Выбранный диапазон
Имя файла F:\FLAC 1 whirlzzumm\Uruk-Hai - Elbenstahl.wav
Пиковый уровень 100.0 % Скорость извлечения 2.0 X Качество диапазона 100.0 % CRC теста 13BEECB3 CRC копии 13BEECB3 Копирование... OK
Ошибок не произошло
AccurateRip: сводка
Трек 1 : извлечено точно (доверие 1) [5F37F95F] (AR v2)Трек 2 : извлечено точно (доверие 1) [DDA21475] (AR v2)Трек 3 : извлечено точно (доверие 1) [E2845642] (AR v2)Трек 4 : извлечено точно (доверие 1) [C806FA7E] (AR v2)Трек 5 : извлечено точно (доверие 1) [E99EAF84] (AR v2)Трек 6 : извлечено точно (доверие 1) [6EF69B86] (AR v2)Трек 7 : извлечено точно (доверие 1) [F73D07E9] (AR v2)Трек 8 : извлечено точно (доверие 1) [654DAA67] (AR v2)Трек 9 : извлечено точно (доверие 1) [4608437A] (AR v2)Трек 10 : извлечено точно (доверие 1) [F157E7C8] (AR v2)Трек 11 : извлечено точно (доверие 1) [3AA48648] (AR v2)Трек 12 : извлечено точно (доверие 1) [06839B01] (AR v2)
Все треки извлечены точно
Конец отчёта
==== Контрольная сумма отчёта 1ACB26FF3DCCB4AF176842645AFD43655AA922B1A7E7632AF2F7C8B90CBF5196 ====

Содержание индексной карты

REM GENRE "Battle Ambient"REM DATE 2015REM DISCID A811D50CREM COMMENT "ExactAudioCopy v1.0b3"PERFORMER "Uruk-Hai"TITLE "Elbenstahl"FILE "Uruk-Hai - Elbenstahl.flac" WAVE TRACK 01 AUDIO TITLE "Blessed Realm" PERFORMER "Uruk-Hai" FLAGS DCP INDEX 01 00:00:00 TRACK 02 AUDIO TITLE "Shadown Dance" PERFORMER "Uruk-Hai" FLAGS DCP INDEX 00 08:13:65 INDEX 01 08:15:65 TRACK 03 AUDIO TITLE "Return Of The Fallen Warriors" PERFORMER "Uruk-Hai" FLAGS DCP INDEX 00 12:27:65 INDEX 01 12:29:65 TRACK 04 AUDIO TITLE "Magic" PERFORMER "Uruk-Hai" FLAGS DCP INDEX 00 17:28:40 INDEX 01 17:30:40 TRACK 05 AUDIO TITLE "At The Heart Of The Forest" PERFORMER "Uruk-Hai" FLAGS DCP INDEX 00 29:30:40 INDEX 01 29:32:40 TRACK 06 AUDIO TITLE "Elbisch Blut" PERFORMER "Uruk-Hai" FLAGS DCP INDEX 00 35:56:40 INDEX 01 35:58:40 TRACK 07 AUDIO TITLE "Western Shores" PERFORMER "Uruk-Hai" FLAGS DCP INDEX 00 39:31:65 INDEX 01 39:33:65 TRACK 08 AUDIO TITLE "The Orc" PERFORMER "Uruk-Hai" FLAGS DCP INDEX 00 45:33:66 INDEX 01 45:35:65 TRACK 09 AUDIO TITLE "The Golden Age Of Gondor" PERFORMER "Uruk-Hai" FLAGS DCP INDEX 00 53:35:65 INDEX 01 53:37:65 TRACK 10 AUDIO TITLE "The Ash Mountains" PERFORMER "Uruk-Hai" FLAGS DCP INDEX 00 61:07:65 INDEX 01 61:09:65 TRACK 11 AUDIO TITLE "The Orc (Pt. 2)" PERFORMER "Uruk-Hai" FLAGS DCP INDEX 00 71:57:40 INDEX 01 71:59:40 TRACK 12 AUDIO TITLE "Dark Shadows (Outro)" PERFORMER "Uruk-Hai" FLAGS DCP INDEX 00 74:39:29 INDEX 01 74:41:29

Лог проверки качества

-----------------------
DON'T MODIFY THIS FILE
-----------------------
PERFORMER: auCDtect Task Manager, ver. 1.5.1RC3 build 1.5.1.4Copyright (c) 2008-2010 y-soft. All rights reservedhttp://y-soft.org
ANALYZER: auCDtect: CD records authenticity detector, version 0.8.2Copyright (c) 2004 Oleg Berngardt. All rights reserved.Copyright (c) 2004 Alexander Djourik. All rights reserved.
FILE: Uruk-Hai - Elbenstahl.flac Size: 446266371 Hash: 4D7E95E97163C2E8A523CF98086F0806 Accuracy: -m0 Conclusion: CDDA 99% Signature: 6EE5782581742945C901A9248041FA198BCF9BE0

Скриншот спектра частот

--


[galltoto.com]_t_5574886.torrent
Торрент: Зарегистрирован ·  [ 2018-06-16 14:57 ] ·  c7be05c6efcdf90f6153705c3d00cbb9fd66a93f

18 KB

Статус: проверено
Скачан: 0 раз
Размер: 443 MB
Оценка: 
(Голосов: 0)
Сказали спасибо: 0  Спасибо
Похожие темы
[Профиль]    [ЛС]
Показать сообщения:    
Ответить на тему

Текущее время: Сегодня 13:18

Часовой пояс: GMT + 7



Вы не можете начинать темы
Вы не можете отвечать на сообщения
Вы не можете редактировать свои сообщения
Вы не можете удалять свои сообщения
Вы не можете голосовать в опросах
Вы не можете прикреплять файлы к сообщениям
Вы можете скачивать файлы


Rick Ness | A Qualquer Custo (Hell or High Water) 2016 | Next →