(Fantasy Dark Ambient | Abstract | Black Metal) [CD] Uruk-Hai - Twilight - 2015, FLAC (image+.cue), lossless

Ответить на тему
Статистика раздачи [Обновить пиров]
Размер:  380 MB   |    Зарегистрирован:  7 месяцев 1 день   |    Скачан:  0 раз

Полного источника не было: Никогда

 
   
 
 
 
Автор Сообщение

galltoto.com

Создавать темы 16-Июн-2018 14:58

[Цитировать]

Uruk-Hai - Twilight



• Жанр: Fantasy Dark Ambient | Abstract | Black Metal
• Носитель: CD
• Страна-производитель диска (релиза): Russia
• Год издания: 2015
• Издатель (номер по каталогу): Yarovit Productions ‎– YP-002
• Страна исполнителя (группы): Austria
• Аудиокодек: FLAC (*.flac)
• Тип рипа: image+.cue
• Продолжительность: 01:06:34
• Источник (релизер): whirlzzumm ®
• Наличие сканов: да

01. One With My Steel {00:08:38}
02. Dorthonion {00:04:18}
03. Smaugs Desolation {00:08:50}
04. Eol {00:02:42}
05. Beneath The Mountains {00:03:14}
06. A Blade That Once Was Broken {00:11:25}
07. Elbenklang (Part 2) {00:12:50}
08. The Golden Age Of Gondor {00:07:32}
09. Over The Misty Mountains Cold {00:07:03}
--

Лог создания рипа

Exact Audio Copy V1.0 beta 3 from 29. August 2011
Отчёт EAC об извлечении, выполненном 10. ноября 2016, 9:30
Uruk-Hai / Twilight
Дисковод: PIONEER DVD-RW DVR-221L Adapter: 0 ID: 0
Режим чтения : ДостоверностьИспользование точного потока : ДаОтключение кэша аудио : ДаИспользование указателей C2 : Нет
Коррекция смещения при чтении : 6Способность читать области Lead-in и Lead-out : НетЗаполнение пропущенных сэмплов тишиной : ДаУдаление блоков с тишиной в начале и конце : НетПри вычислениях CRC использовались нулевые сэмплы : ДаИнтерфейс : Встроенный Win32-интерфейс для Win NT/2000
Выходной формат : Пользовательский кодировщикВыбранный битрейт : 1024 kBit/sКачество : ВысокийДобавление ID3-тега : НетУтилита сжатия : C:\Program Files (x86)\FLAC\flac.exeДополнительные параметры : -V -8 -T "Date=%year%" -T "Genre=%genre%" %source%
TOC извлечённого CD
Трек | Старт | Длительность | Начальный сектор | Конечный сектор --------------------------------------------------------------------- 1 | 0:00.00 | 8:38.00 | 0 | 38849 2 | 8:38.00 | 4:18.00 | 38850 | 58199 3 | 12:56.00 | 8:50.00 | 58200 | 97949 4 | 21:46.00 | 2:42.29 | 97950 | 110128 5 | 24:28.29 | 3:14.00 | 110129 | 124678 6 | 27:42.29 | 11:25.71 | 124679 | 176124 7 | 39:08.25 | 12:50.00 | 176125 | 233874 8 | 51:58.25 | 7:32.00 | 233875 | 267774 9 | 59:30.25 | 7:03.66 | 267775 | 299565
Характеристики диапазона извлечения и сообщения об ошибках
Выбранный диапазон
Имя файла F:\FLAC\Uruk-Hai - Twilight.wav
Пиковый уровень 100.0 % Скорость извлечения 8.4 X Качество диапазона 100.0 % CRC теста 444B675B CRC копии 444B675B Копирование... OK
Ошибок не произошло
AccurateRip: сводка
Трек 1 отсутствует в базе данныхТрек 2 отсутствует в базе данныхТрек 3 отсутствует в базе данныхТрек 4 отсутствует в базе данныхТрек 5 отсутствует в базе данныхТрек 6 отсутствует в базе данныхТрек 7 отсутствует в базе данныхТрек 8 отсутствует в базе данныхТрек 9 отсутствует в базе данных
Ни одного трека нет в базе AccurateRip
Конец отчёта
==== Контрольная сумма отчёта 86E1A4816B7703ADDDF3520B51C1CD72E11BBAD61874AE9E850F012738660F76 ====

Содержание индексной карты

REM GENRE "Fantasy Ambient Metal"REM DATE 2015REM DISCID 690F9A09REM COMMENT "ExactAudioCopy v1.0b3"PERFORMER "Uruk-Hai"TITLE "Twilight"FILE "Uruk-Hai - Twilight.flac" WAVE TRACK 01 AUDIO TITLE "One With My Steel" PERFORMER "Uruk-Hai" INDEX 01 00:00:00 TRACK 02 AUDIO TITLE "Dorthonion" PERFORMER "Uruk-Hai" INDEX 01 08:38:00 TRACK 03 AUDIO TITLE "Smaugs Desolation" PERFORMER "Uruk-Hai" INDEX 01 12:56:00 TRACK 04 AUDIO TITLE "Eol" PERFORMER "Uruk-Hai" INDEX 01 21:46:00 TRACK 05 AUDIO TITLE "Beneath The Mountains" PERFORMER "Uruk-Hai" INDEX 01 24:28:29 TRACK 06 AUDIO TITLE "A Blade That Once Was Broken" PERFORMER "Uruk-Hai" INDEX 01 27:42:29 TRACK 07 AUDIO TITLE "Elbenklang (Part 2)" PERFORMER "Uruk-Hai" INDEX 01 39:08:25 TRACK 08 AUDIO TITLE "The Golden Age Of Gondor" PERFORMER "Uruk-Hai" INDEX 01 51:58:25 TRACK 09 AUDIO TITLE "Over The Misty Mountains Cold" PERFORMER "Uruk-Hai" INDEX 01 59:30:25

Лог проверки качества

-----------------------
DON'T MODIFY THIS FILE
-----------------------
PERFORMER: auCDtect Task Manager, ver. 1.5.1RC3 build 1.5.1.4Copyright (c) 2008-2010 y-soft. All rights reservedhttp://y-soft.org
ANALYZER: auCDtect: CD records authenticity detector, version 0.8.2Copyright (c) 2004 Oleg Berngardt. All rights reserved.Copyright (c) 2004 Alexander Djourik. All rights reserved.
FILE: Uruk-Hai - Twilight.flac Size: 390111210 Hash: 5DE7FA930B64DF60622E0AB8DABF81A0 Accuracy: -m0 Conclusion: CDDA 99% Signature: C0A7FFF081D358D692940650E523C8CD67388D0E

Скриншот спектра частот

--


[galltoto.com]_t_5574889.torrent
Торрент: Зарегистрирован ·  [ 2018-06-16 14:57 ] ·  b8fcb2a007206139be100e487becebb2b9708053

16 KB

Статус: проверено
Скачан: 0 раз
Размер: 380 MB
Оценка: 
(Голосов: 0)
Сказали спасибо: 0  Спасибо
Похожие темы
[Профиль]    [ЛС]
Показать сообщения:    
Ответить на тему

Текущее время: Сегодня 13:15

Часовой пояс: GMT + 7



Вы не можете начинать темы
Вы не можете отвечать на сообщения
Вы не можете редактировать свои сообщения
Вы не можете удалять свои сообщения
Вы не можете голосовать в опросах
Вы не можете прикреплять файлы к сообщениям
Вы можете скачивать файлы


Overhead Projectors | Maxi Puch | Population Growth Essay