(Darkwave, World, Fusion) [WEB] Anu Mauri - Anu Mauri - 2017, FLAC (tracks), lossless

Ответить на тему
Статистика раздачи [Обновить пиров]
Размер:  273 MB   |    Зарегистрирован:  7 месяцев 2 дня   |    Скачан:  0 раз

Полного источника не было: Никогда

Личеров:  1  [  0 KB/s  ]   Подробная статистика скачивающих
 
   
 
 
 
Автор Сообщение

galltoto.com

Создавать темы 15-Июн-2018 23:20

[Цитировать]

Anu Mauri / Anu Mauri
Жанр: Darkwave, World, Fusion
Носитель: WEB
Страна-производитель диска (релиза): Hungary
Год издания: 2017
Издатель (лейбл): self-released
Аудиокодек: FLAC (*.flac)
Тип рипа: tracks
Битрейт аудио: lossless
Продолжительность: 00:45:59
Источник (релизер): bandcamp
Наличие сканов в содержимом раздачи: нет
Треклист:
01 Csillagóra 6:24
02 Gaia 5:27
03 Jas Sin Ne 5:01
04 Szerelem 4:51
05 Beatum Canticum 5:26
06 Jöjj El, Éjjel 6:04
07 Rév 4:02
08 Honvágy 3:41
09 Qumashtra 5:02

Лог проверки качества

AUDIOCHECKER v2.0 beta (build 457) - by Dester - opdester@freemail.hu~~~~~~~~~~~~~~~~~~~~~~~~~~~~~~~~~~-=== НЕ РЕДАКТИРУЙТЕ ЭТОТ ФАЙЛ! ===-
Путь: ...\Anu Mauri - Anu Mauri
1 -=- Anu Mauri - Anu Mauri - 01 Csillagora.flac -=- CDDA (100%)2 -=- Anu Mauri - Anu Mauri - 02 Gaia.flac -=- CDDA (100%)3 -=- Anu Mauri - Anu Mauri - 03 Jas Sin Ne.flac -=- CDDA (100%)4 -=- Anu Mauri - Anu Mauri - 04 Szerelem.flac -=- CDDA (100%)5 -=- Anu Mauri - Anu Mauri - 05 Beatum Canticum.flac -=- CDDA (100%)6 -=- Anu Mauri - Anu Mauri - 06 Jojj El, Ejjel.flac -=- CDDA (100%)7 -=- Anu Mauri - Anu Mauri - 07 Rev.flac -=- CDDA (100%)8 -=- Anu Mauri - Anu Mauri - 08 Honvagy.flac -=- CDDA (100%)9 -=- Anu Mauri - Anu Mauri - 09 Qumashtra.flac -=- CDDA (100%)
Сводка 100,00% CDDA
213380628

Скриншоты спектра частот

DRM

foobar2000 1.3.15 / Dynamic Range Meter 1.1.1log date: 2018-05-31 01:38:48
--------------------------------------------------------------------------------Analyzed: Anu Mauri / Anu Mauri--------------------------------------------------------------------------------
DR Peak RMS Duration Track--------------------------------------------------------------------------------DR7 -0.71 dB -10.39 dB 6:24 01-CsillagóraDR9 -0.73 dB -12.42 dB 5:27 02-GaiaDR10 -0.62 dB -13.93 dB 5:01 03-Jas Sin NeDR9 -0.72 dB -12.90 dB 4:51 04-SzerelemDR8 -0.74 dB -9.60 dB 5:26 05-Beatum CanticumDR9 -0.73 dB -10.82 dB 6:04 06-Jöjj El, ÉjjelDR6 -0.64 dB -10.62 dB 4:02 07-RévDR9 -0.71 dB -11.71 dB 3:41 08-HonvágyDR10 -1.54 dB -15.84 dB 5:02 09-Qumashtra--------------------------------------------------------------------------------
Number of tracks: 9Official DR value: DR9
Samplerate: 44100 HzChannels: 2Bits per sample: 16Bitrate: 735 kbpsCodec: FLAC================================================================================

Об исполнителе (группе)

Anu Mauri represents an extraordinary musical style in Hungary, with its deep atmospheric vibe, delicacy and natural energy.
The genre is best described as a mixture of world fusion and ambient music, due to the presence of traditional ethnic and modern instruments and thanks to the two main vocalists, whose style range from gregorian to eastern music.

Состав

Kürtös Anna - Vocals, Guitar, Keyboard
Baranyi Tamás - Vocals, Yang Qin, Guitar, Percussion
Katona István - Percussion
Magyar Bálint - Keyboard


[galltoto.com]_t_5571398.torrent
Торрент: Зарегистрирован ·  [ 2018-06-15 23:16 ] ·  d19bb20337bc908b58af7b80a6168d65a69022f1

12 KB

Статус: проверено
Скачан: 0 раз
Размер: 273 MB
Оценка: 
(Голосов: 0)
Сказали спасибо: 0  Спасибо
Похожие темы
[Профиль]    [ЛС]
Показать сообщения:    
Ответить на тему

Текущее время: Сегодня 12:46

Часовой пояс: GMT + 7



Вы не можете начинать темы
Вы не можете отвечать на сообщения
Вы не можете редактировать свои сообщения
Вы не можете удалять свои сообщения
Вы не можете голосовать в опросах
Вы не можете прикреплять файлы к сообщениям
Вы можете скачивать файлы


Rugs & Carpets | next page | magicad 2019