(Chanson) [CD] Александр Тафинцев - Спасибо судьба - 2018, FLAC (image+.cue), lossless

Ответить на тему
Статистика раздачи [Обновить пиров]
Размер:  298 MB   |    Зарегистрирован:  8 месяцев 14 дней   |    Скачан:  1 раз

Полного источника не было: 1 месяц 19 дней

 
   
 
 
 
Автор Сообщение

galltoto.com

Создавать темы 04-Май-2018 22:55

[Цитировать]

Александр Тафинцев / Спасибо судьба
Жанр: Chanson
Носитель: CD
Страна-производитель диска (релиза): Россия
Год издания: 2018
Издатель (лейбл): Студия Маркел
Страна исполнителя (группы): Россия
Аудиокодек: FLAC (*.flac)
Тип рипа: image+.cue
Битрейт аудио: lossless
Продолжительность: 00:41:22
Источник (релизер): dzabal
Наличие сканов в содержимом раздачи: да
Треклист:
01.Моя сторонка
02.Чакино
03.Наташа
04.Роза белая
05.Тук, тук, тук
06.Ты приходишь
07.Наталия-дизайнер
08.Шоколадная женщина
09.А я выйду на лужок
10.Спасибо судьба

Лог проверки качества

Exact Audio Copy V1.0 beta 3 from 29. August 2011
Отчёт EAC об извлечении, выполненном 25. апреля 2018, 16:02
Александр Тафинцев / Спасибо судьба
Дисковод: HL-DT-STDVDRAM GH22NS70 Adapter: 2 ID: 0
Режим чтения : ДостоверностьИспользование точного потока : ДаОтключение кэша аудио : ДаИспользование указателей C2 : Нет
Коррекция смещения при чтении : 667Способность читать области Lead-in и Lead-out : НетЗаполнение пропущенных сэмплов тишиной : ДаУдаление блоков с тишиной в начале и конце : НетПри вычислениях CRC использовались нулевые сэмплы : ДаИнтерфейс : Встроенный Win32-интерфейс для Win NT/2000
Выходной формат : Внутренние WAV-операцииФормат файла сэмплов : 44.100 Гц; 16 бит; стерео
TOC извлечённого CD
Трек | Старт | Длительность | Начальный сектор | Конечный сектор --------------------------------------------------------------------- 1 | 0:00.00 | 4:18.00 | 0 | 19349 2 | 4:18.00 | 4:19.00 | 19350 | 38774 3 | 8:37.00 | 4:13.16 | 38775 | 57765 4 | 12:50.16 | 4:14.53 | 57766 | 76868 5 | 17:04.69 | 4:17.49 | 76869 | 96192 6 | 21:22.43 | 4:01.62 | 96193 | 114329 7 | 25:24.30 | 4:00.42 | 114330 | 132371 8 | 29:24.72 | 4:09.36 | 132372 | 151082 9 | 33:34.33 | 3:48.31 | 151083 | 168213 10 | 37:22.64 | 3:59.37 | 168214 | 186175
Характеристики диапазона извлечения и сообщения об ошибках
Выбранный диапазон
Имя файла D:\Александр Тафинцев - Спасибо судьба.wav
Пиковый уровень 100.0 % Скорость извлечения 1.8 X Качество диапазона 100.0 % CRC теста BB78477A CRC копии BB78477A Копирование... OK
Ошибок не произошло
Конец отчёта
==== Контрольная сумма отчёта 428CBDF80AF8E7A18ADCD03AF887CF337EDE231B5C0B1FC47A9741C4138023C6 ====

Состав

Гитара : С.Никитин (01,03,04,05,10)
А.Самойлов (07,08,09)


[galltoto.com]_t_5554452.torrent
Торрент: Зарегистрирован ·  [ 2018-05-04 22:53 ] ·  85be2caa5e76490d8fae2d5de52a5405be01beba

13 KB

Статус: проверено
Скачан: 1 раз
Размер: 298 MB
Оценка: 
(Голосов: 0)
Сказали спасибо: 0  Спасибо
Похожие темы
[Профиль]    [ЛС]
Показать сообщения:    
Ответить на тему

Текущее время: Сегодня 13:23

Часовой пояс: GMT + 7



Вы не можете начинать темы
Вы не можете отвечать на сообщения
Вы не можете редактировать свои сообщения
Вы не можете удалять свои сообщения
Вы не можете голосовать в опросах
Вы не можете прикреплять файлы к сообщениям
Вы можете скачивать файлы


Thương hiệu thang nhôm nào đang “cháy hàng liên tục” dịp cuối năm | Gochuumon wa Usagi Desu ka Season 2 | Captain Tsubasa (2018) Anime