(Шансон) [CD] Александр Жданов - Там,где нас нет - 2002, FLAC (image+.cue), lossless

Ответить на тему
Статистика раздачи [Обновить пиров]
Размер:  280 MB   |    Зарегистрирован:  8 месяцев 21 день   |    Скачан:  0 раз

Полного источника не было: Никогда

 
   
 
 
 
Автор Сообщение

galltoto.com

Создавать темы 27-Апр-2018 18:39

[Цитировать]

Александр Жданов / Там,где нас нет
Жанр: Шансон
Носитель: CD
Страна-производитель диска (релиза): Germany
Год издания: 2002
Издатель (лейбл): Pik Records
Номер по каталогу: FD 0105
Страна исполнителя (группы): Россия
Аудиокодек: FLAC (*.flac)
Тип рипа: image+.cue
Битрейт аудио: lossless
Продолжительность: 00:46:25
Источник (релизер): Собственная коллекция
Наличие сканов в содержимом раздачи: да
Треклист:
01. Не ходи, казак, на войну 4:00
02. Наследство 4:53
03. Долюшка 3:53
04. Там, где нас нет 4:50
05. Вербное воскресенье 4:38
06. Хозяюшка метель 5:00
07. Одинокий волк 3:08
08. Наука 4:34
09. Смута 5:14
10. Пей, Россия 3:06
11. Пошли вам Господи любовь 2:35

Лог создания рипа

Exact Audio Copy V1.3 from 2. September 2016
Отчёт EAC об извлечении, выполненном 13. апреля 2018, 20:08
Александр Жданов / Там, где нас нет
Дисковод: ASUS DRW-24D5MT Adapter: 1 ID: 0
Режим чтения : ДостоверностьИспользование точного потока : ДаОтключение кэша аудио : ДаИспользование указателей C2 : Нет
Коррекция смещения при чтении : 6Способность читать области Lead-in и Lead-out : НетЗаполнение пропущенных сэмплов тишиной : ДаУдаление блоков с тишиной в начале и конце : НетПри вычислениях CRC использовались нулевые сэмплы : ДаИнтерфейс : Встроенный Win32-интерфейс для Win NT/2000
Выходной формат : Пользовательский кодировщикВыбранный битрейт : 128 kBit/sКачество : ВысокийДобавление ID3-тега : НетУтилита сжатия : C:\Program Files (x86)\Exact Audio Copy\Flac\flac.exeДополнительные параметры : -V -8 -T "Date=%year%" -T "Genre=%genre%" %source%
TOC извлечённого CD
Трек | Старт | Длительность | Начальный сектор | Конечный сектор --------------------------------------------------------------------- 1 | 0:00.00 | 4:05.43 | 0 | 18417 2 | 4:05.43 | 4:57.10 | 18418 | 40702 3 | 9:02.53 | 3:39.42 | 40703 | 57169 4 | 12:42.20 | 4:54.58 | 57170 | 79277 5 | 17:37.03 | 4:42.72 | 79278 | 100499 6 | 22:20.00 | 5:06.53 | 100500 | 123502 7 | 27:26.53 | 3:13.30 | 123503 | 138007 8 | 30:40.08 | 4:38.35 | 138008 | 158892 9 | 35:18.43 | 5:18.72 | 158893 | 182814 10 | 40:37.40 | 3:11.00 | 182815 | 197139 11 | 43:48.40 | 2:35.68 | 197140 | 208832
Характеристики диапазона извлечения и сообщения об ошибках
Выбранный диапазон
Имя файла E:\Раздачи\Папки\Александр Жданов - Там,где нас нет\Александр Жданов - Там, где нас нет.wav
Пиковый уровень 98.6 % Скорость извлечения 1.7 X Качество диапазона 100.0 % CRC теста DFA58753 CRC копии DFA58753 Копирование... OK
Ошибок не произошло
AccurateRip: сводка
Трек 1 отсутствует в базе данныхТрек 2 отсутствует в базе данныхТрек 3 отсутствует в базе данныхТрек 4 отсутствует в базе данныхТрек 5 отсутствует в базе данныхТрек 6 отсутствует в базе данныхТрек 7 отсутствует в базе данныхТрек 8 отсутствует в базе данныхТрек 9 отсутствует в базе данныхТрек 10 отсутствует в базе данныхТрек 11 отсутствует в базе данных
Ни одного трека нет в базе AccurateRip
Конец отчёта
==== Контрольная сумма отчёта A08C9374B1D073CF146527475DB1579B0C94084A3C8D865F71339A43EA6693FB ====

Содержание индексной карты (.CUE)

REM GENRE ChansonREM DATE 1994REM DISCID 8A0AE00BREM COMMENT "ExactAudioCopy v1.3"PERFORMER "Александр Жданов"TITLE "Там, где нас нет"REM COMPOSER ""FILE "Александр Жданов - Там, где нас нет.flac" WAVE TRACK 01 AUDIO TITLE "Не ходи, казак, на войну" PERFORMER "Александр Жданов" REM COMPOSER "" INDEX 01 00:00:00 TRACK 02 AUDIO TITLE "Наследство" PERFORMER "Александр Жданов" REM COMPOSER "" INDEX 00 04:00:63 INDEX 01 04:05:43 TRACK 03 AUDIO TITLE "Долюшка" PERFORMER "Александр Жданов" REM COMPOSER "" INDEX 00 08:58:33 INDEX 01 09:02:53 TRACK 04 AUDIO TITLE "Там, где нас нет" PERFORMER "Александр Жданов" REM COMPOSER "" INDEX 00 12:38:13 INDEX 01 12:42:20 TRACK 05 AUDIO TITLE "Вербное воскресенье" PERFORMER "Александр Жданов" REM COMPOSER "" INDEX 00 17:32:50 INDEX 01 17:37:03 TRACK 06 AUDIO TITLE "Хозяюшка метель" PERFORMER "Александр Жданов" REM COMPOSER "" INDEX 00 22:16:35 INDEX 01 22:20:00 TRACK 07 AUDIO TITLE "Одинокий волк" PERFORMER "Александр Жданов" REM COMPOSER "" INDEX 00 27:21:68 INDEX 01 27:26:53 TRACK 08 AUDIO TITLE "Наука" PERFORMER "Александр Жданов" REM COMPOSER "" INDEX 00 30:35:50 INDEX 01 30:40:08 TRACK 09 AUDIO TITLE "Смута" PERFORMER "Александр Жданов" REM COMPOSER "" INDEX 00 35:14:35 INDEX 01 35:18:43 TRACK 10 AUDIO TITLE "Пей, Россия" PERFORMER "Александр Жданов" REM COMPOSER "" INDEX 00 40:33:13 INDEX 01 40:37:40 TRACK 11 AUDIO TITLE "Пошли вам Господи любовь" PERFORMER "Александр Жданов" REM COMPOSER "" INDEX 00 43:44:33 INDEX 01 43:48:40

Лог проверки качества

-----------------------
DON'T MODIFY THIS FILE
-----------------------
PERFORMER: auCDtect Task Manager, ver. 1.6.0 RC1 build 1.6.0.1Copyright (c) 2008-2010 y-soft. All rights reservedhttp://y-soft.org
ANALYZER: auCDtect: CD records authenticity detector, version 0.8.2Copyright (c) 2004 Oleg Berngardt. All rights reserved.Copyright (c) 2004 Alexander Djourik. All rights reserved.
FILE: Александр Жданов - Там, где нас нет.flac Size: 249678592 Hash: 7F44F1CAA1A27B0AF741B78FE45BD9BB Accuracy: -m0 Conclusion: CDDA 100% Signature: 99430FBF4A3013F9D2222BEB2001B83B029AA2D5


[galltoto.com]_t_5552440.torrent
Торрент: Зарегистрирован ·  [ 2018-04-27 18:37 ] ·  c318677acbb03c05c7f98a01cc724b33b496d3d2

13 KB

Статус: проверено
Скачан: 0 раз
Размер: 280 MB
Оценка: 
(Голосов: 0)
Сказали спасибо: 0  Спасибо
Похожие темы
[Профиль]    [ЛС]
Показать сообщения:    
Ответить на тему

Текущее время: Сегодня 13:28

Часовой пояс: GMT + 7



Вы не можете начинать темы
Вы не можете отвечать на сообщения
Вы не можете редактировать свои сообщения
Вы не можете удалять свои сообщения
Вы не можете голосовать в опросах
Вы не можете прикреплять файлы к сообщениям
Вы можете скачивать файлы


Why Do You Love Me? | Watch Now | 6 Headed Shark Attack