(Шансон) [CD] Анатолий Полотно - Русская судьба - 2018, FLAC (image+.cue), lossless

Ответить на тему
Статистика раздачи [Обновить пиров]
Размер:  401 MB   |    Зарегистрирован:  9 месяцев 25 дней   |    Скачан:  1 раз

Полного источника не было: 15 дней

 
   
 
 
 
Автор Сообщение

galltoto.com

Создавать темы 24-Мар-2018 22:27

[Цитировать]

Анатолий Полотно / Русская судьба
Жанр: Шансон
Носитель: CD
Страна-производитель диска (релиза): Россия
Год издания: 2018
Издатель (лейбл): United Music Group
Номер по каталогу: UMG17 CD-1160
Страна исполнителя (группы): Россия
Аудиокодек: FLAC (*.flac)
Тип рипа: image+.cue
Битрейт аудио: lossless
Продолжительность: 00:53:52
Источник (релизер): Собственная коллекция
Наличие сканов в содержимом раздачи: да
Треклист:
01. Русская судьба
02. Россия живет
03. Традиции
04. Кукиш
05. За губернаторов
06. Криминала нет
07. Чирибим-чирибом
08. Сосед
09. На полярке
10. Раз женился- не вой
11. Адам и Ева
12. За славян
13. Россия живет (караоке версия)
14. Раз женился- не вой (караоке версия)
15. За губернаторов (караоке версия)

Лог создания рипа

Exact Audio Copy V1.3 from 2. September 2016
Отчёт EAC об извлечении, выполненном 14. марта 2018, 18:37
Анатолий Полотно / Русская судьба
Дисковод: ASUS DRW-24D5MT Adapter: 1 ID: 0
Режим чтения : ДостоверностьИспользование точного потока : ДаОтключение кэша аудио : ДаИспользование указателей C2 : Нет
Коррекция смещения при чтении : 6Способность читать области Lead-in и Lead-out : НетЗаполнение пропущенных сэмплов тишиной : ДаУдаление блоков с тишиной в начале и конце : НетПри вычислениях CRC использовались нулевые сэмплы : ДаИнтерфейс : Встроенный Win32-интерфейс для Win NT/2000
Выходной формат : Пользовательский кодировщикВыбранный битрейт : 128 kBit/sКачество : ВысокийДобавление ID3-тега : НетУтилита сжатия : C:\Program Files (x86)\Exact Audio Copy\Flac\flac.exeДополнительные параметры : -V -8 -T "Date=%year%" -T "Genre=%genre%" %source%
TOC извлечённого CD
Трек | Старт | Длительность | Начальный сектор | Конечный сектор --------------------------------------------------------------------- 1 | 0:00.00 | 3:54.65 | 0 | 17614 2 | 3:54.65 | 3:48.00 | 17615 | 34714 3 | 7:42.65 | 3:06.65 | 34715 | 48729 4 | 10:49.55 | 3:40.25 | 48730 | 65254 5 | 14:30.05 | 3:09.62 | 65255 | 79491 6 | 17:39.67 | 4:25.04 | 79492 | 99370 7 | 22:04.71 | 2:27.06 | 99371 | 110401 8 | 24:32.02 | 3:12.55 | 110402 | 124856 9 | 27:44.57 | 3:29.00 | 124857 | 140531 10 | 31:13.57 | 4:05.56 | 140532 | 158962 11 | 35:19.38 | 3:49.32 | 158963 | 176169 12 | 39:08.70 | 3:41.48 | 176170 | 192792 13 | 42:50.43 | 3:48.00 | 192793 | 209892 14 | 46:38.43 | 4:05.56 | 209893 | 228323 15 | 50:44.24 | 3:07.62 | 228324 | 242410
Характеристики диапазона извлечения и сообщения об ошибках
Выбранный диапазон
Имя файла E:\Раздачи\Папки\Анатолий Полотно - Русская судьба\Анатолий Полотно - Русская судьба.wav
Пиковый уровень 96.4 % Скорость извлечения 3.2 X Качество диапазона 100.0 % CRC теста DDB9B3F7 CRC копии DDB9B3F7 Копирование... OK
Ошибок не произошло
AccurateRip: сводка
Трек 1 отсутствует в базе данныхТрек 2 отсутствует в базе данныхТрек 3 отсутствует в базе данныхТрек 4 отсутствует в базе данныхТрек 5 отсутствует в базе данныхТрек 6 отсутствует в базе данныхТрек 7 отсутствует в базе данныхТрек 8 отсутствует в базе данныхТрек 9 отсутствует в базе данныхТрек 10 отсутствует в базе данныхТрек 11 отсутствует в базе данныхТрек 12 отсутствует в базе данныхТрек 13 отсутствует в базе данныхТрек 14 отсутствует в базе данныхТрек 15 отсутствует в базе данных
Ни одного трека нет в базе AccurateRip
Конец отчёта
==== Контрольная сумма отчёта CCF777E3B2F85A959563C61B775318FA32863C018A3CC841C9EC307F9B1B2116 ====

Содержание индексной карты (.CUE)

REM GENRE ChansonREM DATE 2018REM DISCID BB0CA00FREM COMMENT "ExactAudioCopy v1.3"PERFORMER "Анатолий Полотно"TITLE "Русская судьба"REM COMPOSER ""FILE "Анатолий Полотно - Русская судьба.flac" WAVE TRACK 01 AUDIO TITLE "Русская судьба" PERFORMER "Анатолий Полотно" REM COMPOSER "" FLAGS DCP INDEX 01 00:00:00 TRACK 02 AUDIO TITLE "Россия живет" PERFORMER "Анатолий Полотно" REM COMPOSER "" FLAGS DCP INDEX 00 03:52:65 INDEX 01 03:54:65 TRACK 03 AUDIO TITLE "Традиции" PERFORMER "Анатолий Полотно" REM COMPOSER "" FLAGS DCP INDEX 00 07:40:65 INDEX 01 07:42:65 TRACK 04 AUDIO TITLE "Кукиш" PERFORMER "Анатолий Полотно" REM COMPOSER "" FLAGS DCP INDEX 00 10:47:55 INDEX 01 10:49:55 TRACK 05 AUDIO TITLE "За губернаторов" PERFORMER "Анатолий Полотно" REM COMPOSER "" FLAGS DCP INDEX 00 14:28:05 INDEX 01 14:30:05 TRACK 06 AUDIO TITLE "Криминала нет" PERFORMER "Анатолий Полотно" REM COMPOSER "" FLAGS DCP INDEX 00 17:37:67 INDEX 01 17:39:67 TRACK 07 AUDIO TITLE "Чирибим-чирибом" PERFORMER "Анатолий Полотно" REM COMPOSER "" FLAGS DCP INDEX 00 22:02:71 INDEX 01 22:04:71 TRACK 08 AUDIO TITLE "Сосед" PERFORMER "Анатолий Полотно" REM COMPOSER "" FLAGS DCP INDEX 00 24:30:02 INDEX 01 24:32:02 TRACK 09 AUDIO TITLE "На полярке" PERFORMER "Анатолий Полотно" REM COMPOSER "" FLAGS DCP INDEX 00 27:42:57 INDEX 01 27:44:57 TRACK 10 AUDIO TITLE "Раз женился- не вой" PERFORMER "Анатолий Полотно" REM COMPOSER "" FLAGS DCP INDEX 00 31:11:57 INDEX 01 31:13:57 TRACK 11 AUDIO TITLE "Адам и Ева" PERFORMER "Анатолий Полотно" REM COMPOSER "" FLAGS DCP INDEX 00 35:17:38 INDEX 01 35:19:38 TRACK 12 AUDIO TITLE "За славян" PERFORMER "Анатолий Полотно" REM COMPOSER "" FLAGS DCP INDEX 00 39:06:70 INDEX 01 39:08:70 TRACK 13 AUDIO TITLE "Россия живет (караоке версия)" PERFORMER "Анатолий Полотно" REM COMPOSER "" FLAGS DCP INDEX 00 42:48:43 INDEX 01 42:50:43 TRACK 14 AUDIO TITLE "Раз женился- не вой (караоке версия)" PERFORMER "Анатолий Полотно" REM COMPOSER "" FLAGS DCP INDEX 00 46:36:43 INDEX 01 46:38:43 TRACK 15 AUDIO TITLE "За губернаторов (караоке версия)" PERFORMER "Анатолий Полотно" REM COMPOSER "" FLAGS DCP INDEX 00 50:42:24 INDEX 01 50:44:24

Лог проверки качества

-----------------------
DON'T MODIFY THIS FILE
-----------------------
PERFORMER: auCDtect Task Manager, ver. 1.6.0 RC1 build 1.6.0.1Copyright (c) 2008-2010 y-soft. All rights reservedhttp://y-soft.org
ANALYZER: auCDtect: CD records authenticity detector, version 0.8.2Copyright (c) 2004 Oleg Berngardt. All rights reserved.Copyright (c) 2004 Alexander Djourik. All rights reserved.
FILE: Анатолий Полотно - Русская судьба.flac Size: 405154495 Hash: 63A00E6497A56891C824850D3B47352B Accuracy: -m0 Conclusion: CDDA 100% Signature: 3B4F2BA7B5B1E363F77DF5A56B9B13A6AB980D67


[galltoto.com]_t_5534447.torrent
Торрент: Зарегистрирован ·  [ 2018-03-24 22:25 ] ·  a0fca86fe7e3f155be43d9d49f97a117fa1409ef

17 KB

Статус: проверено
Скачан: 1 раз
Размер: 401 MB
Оценка: 
(Голосов: 0)
Сказали спасибо: 0  Спасибо
Похожие темы
[Профиль]    [ЛС]
Показать сообщения:    
Ответить на тему

Текущее время: Сегодня 14:13

Часовой пояс: GMT + 7



Вы не можете начинать темы
Вы не можете отвечать на сообщения
Вы не можете редактировать свои сообщения
Вы не можете удалять свои сообщения
Вы не можете голосовать в опросах
Вы не можете прикреплять файлы к сообщениям
Вы можете скачивать файлы


Engraçadas | ConvertXtoDVD v5.2.0.62. | Informações do veículo