(Шансон) [CD] Никольский Андрей - Букет любви - 2005, APE (image+.cue), lossless

Ответить на тему
Статистика раздачи [Обновить пиров]
Размер:  264 MB   |    Зарегистрирован:  10 месяцев 8 дней   |    Скачан:  0 раз

Полного источника не было: Никогда

 
   
 
 
 
Автор Сообщение

galltoto.com

Создавать темы 10-Мар-2018 19:57

[Цитировать]

Никольский Андрей / Букет любви
Жанр: Шансон
Носитель: CD
Страна-производитель диска (релиза): Россия
Год издания: 2005
Издатель (лейбл): WWW.RECORDS.
Номер по каталогу: WWW 295CD/05
Страна исполнителя (группы): Россия
Аудиокодек: APE (*.ape)
Тип рипа: image+.cue
Битрейт аудио: lossless
Продолжительность: 00:42:26
Источник (релизер): mart64val
Наличие сканов в содержимом раздачи: да
Треклист:
01. Милая, любимая
02. Нет в мире краше
03. Букет любви
04. Загрустила девушка
05. Май
06. Желтые тюльпаны
07. Заплакала зима
08. Не говори
09. Золотою грустью
10. Вдруг растаяла в дали
11. Ты прости
12. Года прошли

Лог создания рипа

Exact Audio Copy V1.0 beta 3 from 29. August 2011
Отчёт EAC об извлечении, выполненном 16. ноября 2015, 10:24
Никольский Андрей / Букет любви
Дисковод: Optiarc DVD RW AD-7280S Adapter: 1 ID: 0
Режим чтения : ДостоверностьИспользование точного потока : ДаОтключение кэша аудио : ДаИспользование указателей C2 : Нет
Коррекция смещения при чтении : 48Способность читать области Lead-in и Lead-out : НетЗаполнение пропущенных сэмплов тишиной : ДаУдаление блоков с тишиной в начале и конце : НетПри вычислениях CRC использовались нулевые сэмплы : ДаИнтерфейс : Встроенный Win32-интерфейс для Win NT/2000
Выходной формат : Внутренние WAV-операцииФормат файла сэмплов : 44.100 Гц; 16 бит; стерео
TOC извлечённого CD
Трек | Старт | Длительность | Начальный сектор | Конечный сектор --------------------------------------------------------------------- 1 | 0:00.00 | 4:18.28 | 0 | 19377 2 | 4:18.28 | 3:08.11 | 19378 | 33488 3 | 7:26.39 | 4:24.46 | 33489 | 53334 4 | 11:51.10 | 2:57.25 | 53335 | 66634 5 | 14:48.35 | 2:57.58 | 66635 | 79967 6 | 17:46.18 | 3:15.74 | 79968 | 94666 7 | 21:02.17 | 3:14.11 | 94667 | 109227 8 | 24:16.28 | 2:59.33 | 109228 | 122685 9 | 27:15.61 | 2:47.12 | 122686 | 135222 10 | 30:02.73 | 4:30.42 | 135223 | 155514 11 | 34:33.40 | 2:44.35 | 155515 | 167849 12 | 37:18.00 | 5:07.47 | 167850 | 190921
Характеристики диапазона извлечения и сообщения об ошибках
Выбранный диапазон
Имя файла C:\Users\User\Desktop\111\Никольский Андрей - Букет любви.wav
Пиковый уровень 97.7 % Скорость извлечения 4.0 X Качество диапазона 100.0 % CRC копии 52B8D67B Копирование... OK
Ошибок не произошло
AccurateRip: сводка
Трек 1 отсутствует в базе данныхТрек 2 отсутствует в базе данныхТрек 3 отсутствует в базе данныхТрек 4 отсутствует в базе данныхТрек 5 отсутствует в базе данныхТрек 6 отсутствует в базе данныхТрек 7 отсутствует в базе данныхТрек 8 отсутствует в базе данныхТрек 9 отсутствует в базе данныхТрек 10 отсутствует в базе данныхТрек 11 отсутствует в базе данныхТрек 12 отсутствует в базе данных
Ни одного трека нет в базе AccurateRip
Конец отчёта
==== Контрольная сумма отчёта 52655EAA2AB9F2EBCFA10B551BEAD01C5963D07A8299FC23C02559752D3CECCB ====


[galltoto.com]_t_5114977.torrent
Торрент: Зарегистрирован ·  [ 2018-03-10 19:56 ] ·  07527b382e6ff6aee7c8cc4b97ce386013418a0e

11 KB

Статус: проверено
Скачан: 0 раз
Размер: 264 MB
Оценка: 
(Голосов: 0)
Сказали спасибо: 0  Спасибо
Похожие темы
[Профиль]    [ЛС]
Показать сообщения:    
Ответить на тему

Текущее время: Сегодня 13:42

Часовой пояс: GMT + 7



Вы не можете начинать темы
Вы не можете отвечать на сообщения
Вы не можете редактировать свои сообщения
Вы не можете удалять свои сообщения
Вы не можете голосовать в опросах
Вы не можете прикреплять файлы к сообщениям
Вы можете скачивать файлы


Canadian Dollar | 10PCS 12V Luce Led Individuale Singolo Lampadina con Unita Pre-cablato Luminoso | Pioneer Elite Pro-141