(Chanson) [CD] Марат Крымов - Белый офицер - 1997, FLAC (image+.cue), lossless

Ответить на тему
Статистика раздачи [Обновить пиров]
Размер:  364 MB   |    Зарегистрирован:  10 месяцев 8 дней   |    Скачан:  0 раз

Полного источника не было: Никогда

 
   
 
 
 
Автор Сообщение

galltoto.com

Создавать темы 10-Мар-2018 19:57

[Цитировать]

Марат Крымов - Белый офицер
Жанр: Chanson
Носитель: CD
Страна-производитель диска: Sweden
Год издания: 1997
Издатель (лейбл): СОЮЗ
Номер по каталогу: MS 127
Страна исполнителя (группы): Россия
Аудиокодек: FLAC (*.flac)
Тип рипа: image+.cue
Битрейт аудио: lossless
Продолжительность: 00:47:46
Источник (релизер): mart64val
Наличие сканов в содержимом раздачи: да
Треклист:
01. Поле
02. Солнце моё
03. Сокол
04. Белый офицер
05. Английский ключ
06. Петруха
07. Играй, гитара
08. Золушка
09. Журавли
10. Рябина тонкая

Лог создания рипа

Exact Audio Copy V1.0 beta 3 from 29. August 2011
Отчёт EAC об извлечении, выполненном 23. сентября 2014, 22:36
БЕЛЫЙ ОФИЦЕР / Российским солдатам
Дисковод: Optiarc DVD RW AD-7280S Adapter: 1 ID: 0
Режим чтения : ДостоверностьИспользование точного потока : ДаОтключение кэша аудио : ДаИспользование указателей C2 : Нет
Коррекция смещения при чтении : 48Способность читать области Lead-in и Lead-out : НетЗаполнение пропущенных сэмплов тишиной : ДаУдаление блоков с тишиной в начале и конце : НетПри вычислениях CRC использовались нулевые сэмплы : ДаИнтерфейс : Встроенный Win32-интерфейс для Win NT/2000
Выходной формат : Пользовательский кодировщикВыбранный битрейт : 1024 kBit/sКачество : ВысокийДобавление ID3-тега : НетУтилита сжатия : C:\Program Files (x86)\Exact Audio Copy\FLAC\FLAC.EXEДополнительные параметры : -6 -V -T "ARTIST=%artist%" -T "TITLE=%title%" -T "ALBUM=%albumtitle%" -T "DATE=%year%" -T "TRACKNUMBER=%tracknr%" -T "GENRE=%genre%" -T "COMMENT=%comment%" -T "BAND=%albuminterpret%" -T "ALBUMARTIST=%albuminterpret%" -T "COMPOSER=%composer%" %haslyrics%--tag-from-file=LYRICS="%lyricsfile%"%haslyrics% -T "DISCNUMBER=%cdnumber%" -T "TOTALDISCS=%totalcds%" -T "TOTALTRACKS=%numtracks%" %hascover%--picture="%coverfile%"%hascover% %source% -o %dest%
TOC извлечённого CD
Трек | Старт | Длительность | Начальный сектор | Конечный сектор --------------------------------------------------------------------- 1 | 0:00.55 | 4:25.17 | 55 | 19946 2 | 4:25.72 | 6:35.38 | 19947 | 49609 3 | 11:01.35 | 5:43.12 | 49610 | 75346 4 | 16:44.47 | 4:11.63 | 75347 | 94234 5 | 20:56.35 | 3:25.10 | 94235 | 109619 6 | 24:21.45 | 6:02.20 | 109620 | 136789 7 | 30:23.65 | 3:58.50 | 136790 | 154689 8 | 34:22.40 | 3:58.65 | 154690 | 172604 9 | 38:21.30 | 5:16.00 | 172605 | 196304 10 | 43:37.30 | 4:09.00 | 196305 | 214979
Характеристики диапазона извлечения и сообщения об ошибках
Выбранный диапазон
Имя файла C:\Users\User\Desktop\РАЗДАЧИ\БЕЛЫЙ ОФИЦЕР-Российским солдатам (1997)\БЕЛЫЙ ОФИЦЕР - Российским солдатам.wav
Пиковый уровень 100.0 % Скорость извлечения 3.9 X Качество диапазона 100.0 % CRC теста C3FD7695 CRC копии C3FD7695 Копирование... OK
Ошибок не произошло
AccurateRip: сводка
Трек 1 отсутствует в базе данныхТрек 2 отсутствует в базе данныхТрек 3 отсутствует в базе данныхТрек 4 отсутствует в базе данныхТрек 5 отсутствует в базе данныхТрек 6 отсутствует в базе данныхТрек 7 отсутствует в базе данныхТрек 8 отсутствует в базе данныхТрек 9 отсутствует в базе данныхТрек 10 отсутствует в базе данных
Ни одного трека нет в базе AccurateRip
Конец отчёта
==== Контрольная сумма отчёта FD4AEE9D956469A7BEE8127EAA6CB8D9AC157F289741676A163FEA56D3EE9F76 ====

Скриншот спектра частот



[galltoto.com]_t_4830407.torrent
Торрент: Зарегистрирован ·  [ 2018-03-10 19:56 ] ·  c7d8272d72fc3006f74eb1fce7fa56bd06e83e16

15 KB

Статус: проверено
Скачан: 0 раз
Размер: 364 MB
Оценка: 
(Голосов: 0)
Сказали спасибо: 0  Спасибо
Похожие темы
[Профиль]    [ЛС]
Показать сообщения:    
Ответить на тему

Текущее время: Сегодня 13:39

Часовой пояс: GMT + 7



Вы не можете начинать темы
Вы не можете отвечать на сообщения
Вы не можете редактировать свои сообщения
Вы не можете удалять свои сообщения
Вы не можете голосовать в опросах
Вы не можете прикреплять файлы к сообщениям
Вы можете скачивать файлы


[share_ebook] Enemy Waters | 1x602 Elif | Last Post By: , ago