Валерий Кипелов - Путь Наверх (оригинал+переиздание) [2003-2004, Heavy Metal, DVDRip]

Ответить на тему
Статистика раздачи [Обновить пиров]
Размер:  3.51 GB   |    Зарегистрирован:  1 год 11 месяцев   |    Скачан:  0 раз

Полного источника не было: Никогда

 
   
 
 
 
Автор Сообщение

galltoto.com

Создавать темы 16-Фев-2017 21:04

[Цитировать]

Валерий Кипелов - Путь Наверх (оригинал+переиздание)

Страна: Россия
Жанр: Heavy Metal
Продолжительность:
Год выхода: 2003-2004 г.
Описание:
Концертное видео группы Кипелов, снятое 24 мая 2003 года во дворце спорта "Юбилейный" города Санкт-Петербург. Было выпущено фирмой "Русский Хит", а затем переиздано фирмой "Moroz Records", с удалением почти всех пауз между песнями и добавлением бонус в виде концертного клипа на песню "Я Свободен" и слайд-шоу.
Треклист:
01. Intro (только на оригинале)
02. Путь Наверх
03. Я Не Сошёл С Ума
04. Грязь
05. Бесы
06. Дьявольский Зной
07. Castlevania
08. Я Свободен
09. Путь В Никуда
10. Следуй За Мной
11. Потерянный Рай
12. Беспечный Ангел
13. Герой Асфальта
14. Мёртвая Зона
15. Закат
16. Возьми Моё Сердце
17. Тореро
18. Машина Смерти
19. Воля И Разум
Источник: собственные диски
Качество: DVDRip
Формат файла: MKV
Видео кодек: H.264
Аудио кодек: AC3

Первое издание от компании "Русский Хит"

Видео: H.264, 688*512, 4:3, ~2 200 kpbs, 25 fps
Аудио: AC3, 224 kbps, 48 kHz, 2 ch, 16 bit
Есть переход по главам

Media Info

Общее
Уникальный идентификатор                 : 181396707102606934750770938711196994384 (0x8877BC291AEC8CDC95F3B96949368B50)
Полное имя                               : C:\Users\Zelgadiss Graywords\Downloads\FromTorrents\Мои Раздачи\Валерий Кипелов - Путь Наверх (оригинал+переиздание) [2003-2004, [b][color=blue]DVDRip[/color][/b]s]\Валерий Кипелов - 2003 - Путь Наверх (Русский Хит).mkv
Формат файла                                   : Matroska
Версия формата                           : Version 2
Размер файла                             : 1,67 Гбайт
Продолжительность                        : 1 ч. 38 м.
Общий поток                              : 2424 Кбит/сек
Дата кодирования                         : UTC 2013-09-26 05:42:47
Программа кодирования                    : mkvmerge v6.2.0 ('Promised Land') built on Apr 28 2013 12:22:01
Библиотека кодирования                   : libebml v1.3.0 + libmatroska v1.4.0
Видео
Идентификатор                            : 1
Формат файла                                   : AVC
Формат файла/Информация                        : Advanced Video Codec
Профиль формата                          : High@L4.1
Параметр CABAC формата                   : Да
Параметр ReFrames формата                : 8 кадров
Идентификатор кодека                     : V_MPEG4/ISO/AVC
Продолжительность                        : 1 ч. 38 м.
Битрейт                                  : 2198 Кбит/сек
Ширина                                   : 688 пикселей
Высота                                   : 512 пикселей
Соотношение сторон                       : 4:3
Режим частоты кадров                     : Постоянный
Частота кадров                           : 25,000 кадров/сек
Цветовое пространство                    : YUV
Субдискретизация насыщенности            : 4:2:0
Битовая глубина                          : 8 бит
Тип развёртки                            : Прогрессивная
Бит/(Пиксели*Кадры)                      : 0.250
Размер потока                            : 1,48 Гбайт (89%)
Заголовок                                : H.264, ~2.2 Mbps, 4:3, 688*512
Библиотека кодирования                   : x264 core 133 r2334 a3ac64b
Настройки программы                      : cabac=1 / ref=8 / deblock=1:-1:-1 / analyse=0x3:0x133 / me=umh / subme=9 / psy=1 / psy_rd=1.00:0.15 / mixed_ref=1 / me_range=16 / chroma_me=1 / trellis=2 / 8x8dct=1 / cqm=0 / deadzone=21,11 / fast_pskip=1 / chroma_qp_offset=-3 / threads=3 / lookahead_threads=1 / sliced_threads=0 / nr=0 / decimate=1 / interlaced=0 / bluray_compat=0 / constrained_intra=0 / bframes=6 / b_pyramid=0 / b_adapt=2 / b_bias=0 / direct=3 / weightb=1 / open_gop=0 / weightp=2 / keyint=250 / keyint_min=25 / scenecut=40 / intra_refresh=0 / rc_lookahead=60 / rc=2pass / mbtree=1 / bitrate=2198 / ratetol=1.0 / qcomp=0.60 / qpmin=10 / qpmax=51 / qpstep=4 / cplxblur=20.0 / qblur=0.5 / vbv_maxrate=17500 / vbv_bufsize=14000 / nal_hrd=none / ip_ratio=1.40 / aq=1:1.00
Язык                                     : English
Default                                  : Да
Forced                                   : Нет
Аудио
Идентификатор                            : 2
Формат файла                                   : AC-3
Формат файла/Информация                        : Audio Coding 3
Расширение режима                        : CM (complete main)
Параметр Endianness формата              : Big
Идентификатор кодека                     : A_AC3
Продолжительность                        : 1 ч. 38 м.
Вид битрейта                             : Постоянный
Битрейт                                  : 224 Кбит/сек
Каналы                                   : 2 канала
Расположение каналов                     : Front: L R
Частота                                  : 48,0 КГц
Битовая глубина                          : 16 бит
Метод сжатия                             : С потерями
Размер потока                            : 158 Мбайт (9%)
Заголовок                                : AC3, 224 kbps, 16 bit, 48 kHz, 2 ch
Язык                                     : Russian
Default                                  : Да
Forced                                   : Нет
Меню
00:00:00.000                             : en:01. Intro
00:01:27.000                             : en:02. Путь Наверх
00:08:25.800                             : en:03. Я Не Сошёл С Ума
00:14:16.200                             : en:04. Грязь
00:18:46.800                             : en:05. Бесы
00:22:29.400                             : en:06. Дьявольский Зной
00:27:51.000                             : en:07. Castlevania
00:34:18.000                             : en:08. Я Свободен
00:41:15.000                             : en:09. Путь В Никуда
00:46:41.400                             : en:10. Следуй За Мной
00:51:20.440                             : en:11. Потерянный Рай
00:57:08.440                             : en:12. Беспечный Ангел
01:00:44.440                             : en:13. Герой Асфальта
01:05:55.240                             : en:14. Мёртвая Зона
01:12:36.040                             : en:15. Закат
01:16:09.640                             : en:16. Возьми Моё Сердце
01:20:00.040                             : en:17. Тореро
01:27:39.040                             : en:18. Машина Смерти
01:31:25.240                             : en:19. Воля И Разум

Скриншоты

Переиздание от компании "Moroz Records"

Видео: H.264, 720*528, 4:3, ~2 350 kpbs, 25 fps
Аудио: AC3, 448 kbps, 48 kHz, 5.1 ch, 16 bit
Есть переход по главам

Media Info

Общее
Уникальный идентификатор                 : 207428139538659856962182674642425641841 (0x9C0D34DECBE38F5293C2A2E7C3087B71)
Полное имя                               : C:\Users\Zelgadiss Graywords\Downloads\FromTorrents\Мои Раздачи\Валерий Кипелов - Путь Наверх (оригинал+переиздание) [2003-2004, [b][color=blue]DVDRip[/color][/b]s]\Валерий Кипелов - 2004 - Путь Наверх (Moroz Records).mkv
Формат файла                                   : Matroska
Версия формата                           : Version 2
Размер файла                             : 1,85 Гбайт
Продолжительность                        : 1 ч. 33 м.
Общий поток                              : 2822 Кбит/сек
Дата кодирования                         : UTC 2013-09-28 07:49:36
Программа кодирования                    : mkvmerge v6.2.0 ('Promised Land') built on Apr 28 2013 12:22:01
Библиотека кодирования                   : libebml v1.3.0 + libmatroska v1.4.0
Видео
Идентификатор                            : 1
Формат файла                                   : AVC
Формат файла/Информация                        : Advanced Video Codec
Профиль формата                          : High@L4.1
Параметр CABAC формата                   : Да
Параметр ReFrames формата                : 8 кадров
Идентификатор кодека                     : V_MPEG4/ISO/AVC
Продолжительность                        : 1 ч. 33 м.
Битрейт                                  : 2372 Кбит/сек
Ширина                                   : 720 пикселей
Высота                                   : 528 пикселей
Соотношение сторон                       : 4:3
Режим частоты кадров                     : Постоянный
Частота кадров                           : 25,000 кадров/сек
Цветовое пространство                    : YUV
Субдискретизация насыщенности            : 4:2:0
Битовая глубина                          : 8 бит
Тип развёртки                            : Прогрессивная
Бит/(Пиксели*Кадры)                      : 0.250
Размер потока                            : 1,52 Гбайт (82%)
Заголовок                                : H.264, ~2.4 Mbps, 4:3, 720*528
Библиотека кодирования                   : x264 core 133 r2334 a3ac64b
Настройки программы                      : cabac=1 / ref=8 / deblock=1:-1:-1 / analyse=0x3:0x133 / me=umh / subme=9 / psy=1 / psy_rd=1.00:0.15 / mixed_ref=1 / me_range=16 / chroma_me=1 / trellis=2 / 8x8dct=1 / cqm=0 / deadzone=21,11 / fast_pskip=1 / chroma_qp_offset=-3 / threads=3 / lookahead_threads=1 / sliced_threads=0 / nr=0 / decimate=1 / interlaced=0 / bluray_compat=0 / constrained_intra=0 / bframes=6 / b_pyramid=0 / b_adapt=2 / b_bias=0 / direct=3 / weightb=1 / open_gop=0 / weightp=2 / keyint=250 / keyint_min=25 / scenecut=40 / intra_refresh=0 / rc_lookahead=60 / rc=2pass / mbtree=1 / bitrate=2372 / ratetol=1.0 / qcomp=0.60 / qpmin=10 / qpmax=51 / qpstep=4 / cplxblur=20.0 / qblur=0.5 / vbv_maxrate=17500 / vbv_bufsize=14000 / nal_hrd=none / ip_ratio=1.40 / aq=1:1.00
Язык                                     : English
Default                                  : Да
Forced                                   : Нет
Аудио
Идентификатор                            : 2
Формат файла                                   : AC-3
Формат файла/Информация                        : Audio Coding 3
Расширение режима                        : CM (complete main)
Параметр Endianness формата              : Big
Идентификатор кодека                     : A_AC3
Продолжительность                        : 1 ч. 33 м.
Вид битрейта                             : Постоянный
Битрейт                                  : 448 Кбит/сек
Каналы                                   : 6 каналов
Расположение каналов                     : Front: L C R, Side: L R, LFE
Частота                                  : 48,0 КГц
Битовая глубина                          : 16 бит
Метод сжатия                             : С потерями
Размер потока                            : 300 Мбайт (16%)
Заголовок                                : AC3, 448 kbps, 16 bit, 48 kHz, 5.1 ch
Default                                  : Да
Forced                                   : Нет
Меню
00:00:00.000                             : en:01. Путь Наверх
00:07:54.280                             : en:02. Я Не Сошёл С Ума
00:13:30.920                             : en:03. Грязь
00:18:03.160                             : en:04. Бесы
00:21:44.640                             : en:05. Дьявольский Зной
00:27:02.720                             : en:06. Castlevania
00:33:13.800                             : en:07. Я Свободен
00:40:21.760                             : en:08. Путь В Никуда
00:45:50.520                             : en:09. Следуй За Мной
00:50:19.680                             : en:10. Потерянный Рай
00:55:40.000                             : en:11. Беспечный Ангел
00:59:17.920                             : en:12. Герой Асфальта
01:04:20.440                             : en:13. Мёртвая Зона
01:10:53.960                             : en:14. Закат
01:14:15.120                             : en:15. Возьми Моё Сердце
01:18:08.240                             : en:16. Тореро
01:23:58.280                             : en:17. Машина Смерти
01:27:45.880                             : en:18. Воля И Разум

Скриншоты

Состав

Валерий Кипелов — вокал
Сергей Маврин — гитара, клавишные
Сергей Терентьев — гитара, клавишные, автор идеи, сведение
Алексей Харьков — бас-гитара
Александр Манякин — ударные
Валерий Шишаков — звукооператор
Евгений Шидловский — барабанный техник, бэк-вокал, клавишные
Сергей Степанов — гитарный техник
Виктор Скроботов — гитарный техник
Операторы:
Александр Соловьёв
Стас Пикарский
Виктор Ванин
Семён Смирнов
Игорь Погодин
Звукоинженеры:
Виктор Смирнов
Игорь Сорокин


[galltoto.com]_t_4544907.torrent
Торрент: Зарегистрирован ·  [ 2017-02-16 20:42 ] ·  489815b514598f40fa0455903475c6ae2efe4ee4

18 KB

Статус: проверено
Скачан: 0 раз
Размер: 3.51 GB
Оценка: 
(Голосов: 0)
Сказали спасибо: 0  Спасибо
Похожие темы
[Профиль]    [ЛС]
Показать сообщения:    
Ответить на тему

Текущее время: Сегодня 05:46

Часовой пояс: GMT + 7



Вы не можете начинать темы
Вы не можете отвечать на сообщения
Вы не можете редактировать свои сообщения
Вы не можете удалять свои сообщения
Вы не можете голосовать в опросах
Вы не можете прикреплять файлы к сообщениям
Вы можете скачивать файлы


Rock and Roll | Download McAfee Antivirus PLUS 2019 1 Year Unlimited Devices WINDOWS MAC ANDROID | Мания величия