Гран-Куражъ (Куражъ) - Юбилейный Концерт. 10 Лет (10.05.2009, клуб "Х.О.") [2009, Heavy Power Metal, DVDRip]

Ответить на тему
Статистика раздачи [Обновить пиров]
Размер:  1.8 GB   |    Зарегистрирован:  1 год 11 месяцев   |    Скачан:  0 раз

Полного источника не было: Никогда

 
   
 
 
 
Автор Сообщение

galltoto.com

Создавать темы 16-Фев-2017 21:03

[Цитировать]

Гран-Куражъ (Куражъ) - Юбилейный Концерт. 10 Лет (10.05.2009, клуб "Х.О.")

Страна: Россия
Жанр: Heavy Power Metal
Продолжительность: 01:40:51
Год выхода: 2009 г.
Описание: Юбилейный концерт группы в клубе "Х.О." - 10 лет группе и 5 лет "золотому" составу.

Треклист:
01. Только Вперёд!
02. Новой Надежды Свет
03. Старт Во Тьме
04. У Ветра Спроси
05. Последний Танец (Feat. "Лазурит")
06. Опрокинутость (В Небе)
07. Если Жив Ещё
08. Мистерия Войны
09. Поздно Для Любви
10. Царь
11. Искатели Мира (Feat. С. Сергеев)
12. Мир Для Нас С Тобою
13. Помни Обо Мне
14. Что Такое Любовь?
15. Скрипка Паганини
16. Сирены
17. Дождь
18. 9 Жизней
19. Бременские Музыканты
Присутствует навигация по трекам
Доп. информация: Звучание концертное со всеми плюсами и минусами такого звука.
Источник: скачано из сети (группа выложила Источник: Torrentc.org концерта в DVD-качестве)
Качество: DVDRip
Формат файла: MKV
Видео кодек: H.264
Аудио кодек: MP3
Видео: H.264, 720*400, 16:9, ~2300 kbps, 25 fps
Аудио: MP3, 320 kbps, 48 kHz, 2ch
Media Info">

Скриншоты Media Info


ОбщееУникальный идентификатор : 255138812001855939203726040894461532903 (0xBFF1F2A315B2F70380F4C4CEB6F55AE7)Полное имя : C:\Users\Zelgadiss Graywords\Converted\Video\Гран-Куражъ\Гран-КуражЪ - Live 2009-05-10 монтаж звук Edit-muxed.mkvФормат файла : MatroskaВерсия формата : Version 2Размер файла : 1,80 ГбайтПродолжительность : 1 ч. 40 м.Общий поток : 2550 Кбит/секДата кодирования : UTC 2014-05-02 20:10:27Программа кодирования : mkvmerge v6.5.0 ('Isn't she lovely') built on Oct 20 2013 12:50:05Библиотека кодирования : libebml v1.3.0 + libmatroska v1.4.1
ВидеоИдентификатор : 1Формат файла : AVCФормат файла/Информация : Advanced Video CodecПрофиль формата : High@L4.1Параметр CABAC формата : ДаПараметр ReFrames формата : 8 кадровИдентификатор кодека : V_MPEG4/ISO/AVCПродолжительность : 1 ч. 40 м.Битрейт : 2228 Кбит/секШирина : 720 пикселейВысота : 400 пикселейСоотношение сторон : 16:9Режим частоты кадров : ПостоянныйЧастота кадров : 25,000 кадров/секЦветовое пространство : YUVСубдискретизация насыщенности : 4:2:0Битовая глубина : 8 битТип развёртки : ПрогрессивнаяБит/(Пиксели*Кадры) : 0.309Размер потока : 1,54 Гбайт (85%)Заголовок : AVC, 720*400, 16:9, ~2300 kbps, 25 fpsБиблиотека кодирования : x264 core 138 r2358 9e941d1Настройки программы : cabac=1 / ref=8 / deblock=1:-1:-1 / analyse=0x3:0x133 / me=umh / subme=9 / psy=1 / psy_rd=1.00:0.15 / mixed_ref=1 / me_range=16 / chroma_me=1 / trellis=2 / 8x8dct=1 / cqm=0 / deadzone=21,11 / fast_pskip=1 / chroma_qp_offset=-3 / threads=3 / lookahead_threads=1 / sliced_threads=0 / nr=0 / decimate=1 / interlaced=0 / bluray_compat=0 / constrained_intra=0 / bframes=6 / b_pyramid=0 / b_adapt=2 / b_bias=0 / direct=3 / weightb=1 / open_gop=0 / weightp=2 / keyint=250 / keyint_min=25 / scenecut=40 / intra_refresh=0 / rc_lookahead=60 / rc=2pass / mbtree=1 / bitrate=2228 / ratetol=1.0 / qcomp=0.60 / qpmin=10 / qpmax=51 / qpstep=4 / cplxblur=20.0 / qblur=0.5 / vbv_maxrate=17500 / vbv_bufsize=14000 / nal_hrd=none / ip_ratio=1.40 / aq=1:1.00Язык : EnglishDefault : ДаForced : Нет
АудиоИдентификатор : 2Формат файла : MPEG AudioВерсия формата : Version 1Профиль формата : Layer 3Режим : Joint stereoИдентификатор кодека : A_MPEG/L3Идентификатор кодека/Подсказка : MP3Продолжительность : 1 ч. 40 м.Вид битрейта : ПостоянныйБитрейт : 320 Кбит/секКаналы : 2 каналаЧастота : 48,0 КГцМетод сжатия : С потерямиРазмер потока : 231 Мбайт (13%)Заголовок : MP3, 320 kbps, 48 kHz, 2 chБиблиотека кодирования : LAME3.99rНастройки программы : -m j -V 4 -q 2 -lowpass 20.5Язык : RussianDefault : ДаForced : Нет
Меню00:00:00.000 : en:Только Вперёд!00:06:15.000 : en:Новой Надежды Свет00:11:22.000 : en:Старт Во Тьме00:15:23.700 : en:У Ветра Спроси00:21:16.000 : en:Последний Танец (Feat. "Лазурит")00:27:12.000 : en:Опрокинутость (В Небе)00:33:29.000 : en:Если Жив Ещё00:37:14.500 : en:Мистерия Войны00:41:31.200 : en:Поздно Для Любви00:46:43.300 : en:Царь00:51:13.000 : en:Искатели Мира (Feat. С. Сергеев)00:59:52.000 : en:Мир Для Нас С Тобою01:03:26.000 : en:Помни Обо Мне01:09:37.500 : en:Что Такое Любовь?01:14:15.500 : en:Скрипка Паганини01:18:30.300 : en:Сирены01:22:16.000 : en:Дождь01:27:20.000 : en:9 Жизней01:33:08.000 : en:Бременские Музыканты

Media Info (Источник: Torrentc.org)

ОбщееПолное имя : C:\Users\Zelgadiss Graywords\Converted\Video\Гран-Куражъ\Гран-КуражЪ - Live 2009-05-10 монтаж звук Edit.mpgФормат файла : MPEG-PSРазмер файла : 5,09 ГбайтПродолжительность : 1 ч. 40 м.Режим общего битрейта : ПеременныйОбщий поток : 7226 Кбит/секБиблиотека кодирования : (c) 1998-2009 Womble Multimedia, Inc. / MPEG Video Wizard (03/2009) / Jun 24 2009
ВидеоИдентификатор : 224 (0xE0)Формат файла : MPEG VideoВерсия формата : Version 2Профиль формата : Main@MainПараметр BVOP формата : ДаПараметр матрицы формата : ВыборочнаяПараметр GOP формата : VariableПродолжительность : 1 ч. 40 м.Вид битрейта : ПеременныйБитрейт : 5546 Кбит/секМаксимальный битрейт : 8000 Кбит/секШирина : 720 пикселейВысота : 576 пикселейСоотношение сторон : 16:9Частота кадров : 25,000 кадров/секСтандарт вещания : PALЦветовое пространство : YUVСубдискретизация насыщенности : 4:2:0Битовая глубина : 8 битТип развёртки : ЧересстрочнаяПорядок развёртки : Верхнее поле первоеМетод сжатия : С потерямиБит/(Пиксели*Кадры) : 0.535Временной код первого кадра : 00:00:00:00Оригинал временного кода : Group of pictures headerРазмер потока : 3,91 Гбайт (77%)Библиотека кодирования : (c) 1998-2009 Womble Multimedia, Inc. / MPEG Video Wizard (03/2009) / Jun 24 2009Коэффициенты матрицы : BT.601
АудиоИдентификатор : 189 (0xBD)-160 (0xA0)Формат файла : PCMПараметр Endianness формата : BigПараметр Sign формата : SignedРежим смешивания : DVD-VideoПродолжительность : 1 ч. 40 м.Вид битрейта : ПостоянныйБитрейт : 1536 Кбит/секКаналы : 2 каналаЧастота : 48,0 КГцБитовая глубина : 16 битРазмер потока : 1,08 Гбайт (21%)
Меню


[galltoto.com]_t_4730446.torrent
Торрент: Зарегистрирован ·  [ 2017-02-16 20:42 ] ·  49f8c537d13e45c4ec33ea3d8321cbddd82e343e

18 KB

Статус: проверено
Скачан: 0 раз
Размер: 1.8 GB
Оценка: 
(Голосов: 0)
Сказали спасибо: 0  Спасибо
Похожие темы
[Профиль]    [ЛС]
Показать сообщения:    
Ответить на тему

Текущее время: Сегодня 05:50

Часовой пояс: GMT + 7



Вы не можете начинать темы
Вы не можете отвечать на сообщения
Вы не можете редактировать свои сообщения
Вы не можете удалять свои сообщения
Вы не можете голосовать в опросах
Вы не можете прикреплять файлы к сообщениям
Вы можете скачивать файлы


下載 APK | X-Men: Grand Design - Second Genesis #2A (Wk35) | Nonverbal Communication - 3777 Words