Ulytau - Two Warriors (bonus video) [2009, Instrumental Ethno Rock / Folk Metal, DVDRip]

Ответить на тему
Статистика раздачи [Обновить пиров]
Размер:  258 MB   |    Зарегистрирован:  1 год 11 месяцев   |    Скачан:  0 раз

Полного источника не было: Никогда

 
   
 
 
 
Автор Сообщение

galltoto.com

Создавать темы 16-Фев-2017 21:03

[Цитировать]

Ulytau - Two Warriors (bonus video)
Страна: Kazakhstan
Жанр: Instrumental Ethno Rock / Folk Metal
Продолжительность: 00:04:15
Год выхода: 2009 г.
Описание: Бонус видео к европейской версии альбома [url=viewtopic.php?t=4918807]Two Warriors (2009)[/url]
Треклист:
1. Two Warriors (bonus video)
Источник: Оригинальный CD
Качество: DVDRip
Формат файла: MPG
Видео кодек: MPEG2
Аудио кодек: MP2
Видео: MPG2-DXVA, 720X576, 4:3, Variable, 25.00 fps
Аудио: MP2, 384 kbps, 48 kHz, 2ch

MI

H:\Music Video\Ulytau - Two Warriors.mpg
General
Complete name : H:\Music Video\Ulytau - Two Warriors.mpg
Format : MPEG-PS
File size : 258 MiB
Duration : 4mn 15s
Overall bit rate mode : Variable
Overall bit rate : 8 453 Kbps
Writing library : encoded by TMPGEnc 4.0 XPress Version. 4.3.1.222
Video #224
ID : 224 (0xE0)
Format : MPEG Video
Format version : Version 2
Format profile : Main@Main
Format settings, BVOP : Yes
Format settings, Matrix : Custom
Format settings, GOP : Variable
Duration : 4mn 15s
Bit rate mode : Variable
Bit rate : 7 901 Kbps
Maximum bit rate : 10 000 Kbps
Width : 720 pixels
Height : 576 pixels
Display aspect ratio : 4:3
Frame rate : 25.000 fps
Standard : PAL
Color space : YUV
Chroma subsampling : 4:2:0
Bit depth : 8 bits
Scan type : Progressive
Compression mode : Lossy
Bits/(Pixel*Frame) : 0.762
Time code of first frame : 00:00:00:00
Time code source : Group of pictures header
Stream size : 241 MiB (93%)
Writing library : TMPGEnc XPress 4.3.1.222
Color primaries : BT.601 PAL
Transfer characteristics : BT.470 System B, BT.470 System G
Matrix coefficients : BT.601
Audio #192
ID : 192 (0xC0)
Format : MPEG Audio
Format version : Version 1
Format profile : Layer 2
Duration : 4mn 15s
Bit rate mode : Constant
Bit rate : 384 Kbps
Channel(s) : 2 channels
Sampling rate : 48.0 KHz
Compression mode : Lossy
Stream size : 11.7 MiB (5%)

Скриншоты

[url=viewtopic.php?t=4918807]CD[/url]
[url=tracker.php?rid=38015067]Мои раздачи[/url]


[galltoto.com]_t_4920251.torrent
Торрент: Зарегистрирован ·  [ 2017-02-16 20:42 ] ·  3b877b7d63753fa2097c8e748e5a3404e7e08425

11 KB

Статус: проверено
Скачан: 0 раз
Размер: 258 MB
Оценка: 
(Голосов: 0)
Сказали спасибо: 0  Спасибо
Похожие темы
[Профиль]    [ЛС]
Показать сообщения:    
Ответить на тему

Текущее время: Сегодня 05:48

Часовой пояс: GMT + 7



Вы не можете начинать темы
Вы не можете отвечать на сообщения
Вы не можете редактировать свои сообщения
Вы не можете удалять свои сообщения
Вы не можете голосовать в опросах
Вы не можете прикреплять файлы к сообщениям
Вы можете скачивать файлы


4. Sezon 10. Bölüm Lake Hollywood. | Ver Dominion (2014) | Neon Exodus Evangelion (EPUB) Neon Exodus Evangelion (EPUB)