Мастер - XX Лет [2008, Heavy Metal, DVDRip]

Ответить на тему
Статистика раздачи [Обновить пиров]
Размер:  2.73 GB   |    Зарегистрирован:  2 года   |    Скачан:  0 раз

Полного источника не было: Никогда

 
   
 
 
 
Автор Сообщение

galltoto.com

Создавать темы 16-Фев-2017 21:03

[Цитировать]

Мастер - XX Лет

Страна: Россия
Жанр: Heavy Metal
Продолжительность: 01:31:24 + 01:04:05
Год выхода: 2008 г.
Треклист:

DVD#1

00. Intro
01. Игра
02. Мастер Скорбных Дел
03. Вера Горит На Кострах
04. Места Хватит Всем
05. Тату
06. Песни Мёртвых
07. Кресты
08. Високосный Век
09. Щит И Меч
10. 33 жизни
11. Heavy Ламбада
12. Кто Кого?
13. Только Ты
14. На Линии Огня
15. За Гранью
16. Время Варваров
17. Пепел На Ветру
18. Heroes
19. Храни Меня
20. Руки Прочь

DVD#2

00. Intro
01. Не Хотим
02. Берегись
03. Палачи
04. Ещё Раз Ночь
05. Игры Не Для Нас
06. Тореро
07. Без Тебя
08. Икар
09. Здесь Куют Металл
10. Встань, Страх Преодолей
11. Воля И Разум
12. Мастер
Источник: [url=viewtopic.php?t=960349]DVD#1[/url] [url=viewtopic.php?t=960366]DVD#2[/url]
Качество: DVDRip
Формат файла: MKV
Видео кодек: H.264
Аудио кодек: MP3
Видео: H.264, ~2225 kbps, 4:3, 720*528, 25 fps
Аудио: MP3, 320 kbps, 48 kHz, 16 bit, 2 ch
Переход по главам: Да
MediaInfoDVD#1">

Скриншоты MediaInfoDVD#1


ОбщееУникальный идентификатор : 191019209593639863116165990612916160560 (0x8FB4F62983A633DEBB678C2D1C9AC830)Полное имя : C:\Users\Zelgadiss Graywords\Downloads\FromTorrents\Мои Раздачи\Мастер - XX Лет (DVDRip-AVC)\DVD#1.mkvФормат файла : MatroskaВерсия формата : Version 2Размер файла : 1,51 ГбайтПродолжительность : 1 ч. 31 м.Общий поток : 2372 Кбит/секДата кодирования : UTC 2015-02-23 16:17:53Программа кодирования : mkvmerge v7.0.0 ('Where We Going') 32bit built on Jun 9 2014 15:08:34Библиотека кодирования : libebml v1.3.0 + libmatroska v1.4.1DURATION : 01:31:24.144000000NUMBER_OF_FRAMES : 228506NUMBER_OF_BYTES : 219365760_STATISTICS_WRITING_APP : mkvmerge v7.0.0 ('Where We Going') 32bit built on Jun 9 2014 15:08:34_STATISTICS_WRITING_DATE_UTC : 2015-02-23 16:17:53_STATISTICS_TAGS : BPS DURATION NUMBER_OF_FRAMES NUMBER_OF_BYTES
ВидеоИдентификатор : 1Формат файла : AVCФормат файла/Информация : Advanced Video CodecПрофиль формата : High@L4.1Параметр CABAC формата : ДаПараметр ReFrames формата : 8 кадровИдентификатор кодека : V_MPEG4/ISO/AVCПродолжительность : 1 ч. 31 м.Битрейт : 2050 Кбит/секШирина : 720 пикселейВысота : 528 пикселейСоотношение сторон : 4:3Режим частоты кадров : ПостоянныйЧастота кадров : 25,000 кадров/секЦветовое пространство : YUVСубдискретизация насыщенности : 4:2:0Битовая глубина : 8 битТип развёртки : ПрогрессивнаяБит/(Пиксели*Кадры) : 0.216Размер потока : 1,28 Гбайт (85%)Заголовок : AVC, 2050 kbps, 25 fps, 4:3, 720*528Библиотека кодирования : x264 core 142 r2431 ac76440Настройки программы : cabac=1 / ref=8 / deblock=1:-1:-1 / analyse=0x3:0x133 / me=umh / subme=9 / psy=1 / psy_rd=1.00:0.15 / mixed_ref=1 / me_range=16 / chroma_me=1 / trellis=2 / 8x8dct=1 / cqm=0 / deadzone=21,11 / fast_pskip=1 / chroma_qp_offset=-3 / threads=6 / lookahead_threads=1 / sliced_threads=0 / nr=0 / decimate=1 / interlaced=0 / bluray_compat=0 / constrained_intra=0 / bframes=6 / b_pyramid=0 / b_adapt=2 / b_bias=0 / direct=3 / weightb=1 / open_gop=0 / weightp=2 / keyint=250 / keyint_min=25 / scenecut=40 / intra_refresh=0 / rc_lookahead=60 / rc=2pass / mbtree=1 / bitrate=2050 / ratetol=1.0 / qcomp=0.60 / qpmin=10 / qpmax=51 / qpstep=4 / cplxblur=20.0 / qblur=0.5 / vbv_maxrate=17500 / vbv_bufsize=14000 / nal_hrd=none / filler=0 / ip_ratio=1.40 / aq=1:1.00Язык : EnglishDefault : ДаForced : НетDURATION : 01:31:24.080000000NUMBER_OF_FRAMES : 137102NUMBER_OF_BYTES : 1405456985_STATISTICS_WRITING_APP : mkvmerge v7.0.0 ('Where We Going') 32bit built on Jun 9 2014 15:08:34_STATISTICS_WRITING_DATE_UTC : 2015-02-23 16:17:53_STATISTICS_TAGS : BPS DURATION NUMBER_OF_FRAMES NUMBER_OF_BYTES
АудиоИдентификатор : 2Формат файла : MPEG AudioВерсия формата : Version 1Профиль формата : Layer 3Режим : Joint stereoИдентификатор кодека : A_MPEG/L3Идентификатор кодека/Подсказка : MP3Продолжительность : 1 ч. 31 м.Вид битрейта : ПостоянныйБитрейт : 320 Кбит/секКаналы : 2 каналаЧастота : 48,0 КГцМетод сжатия : С потерямиРазмер потока : 209 Мбайт (13%)Заголовок : MP3, 320 kbps, 48 kHz, 2 ch, 16 bitБиблиотека кодирования : LAME3.99rНастройки программы : -m j -V 4 -q 2 -lowpass 20.5Default : ДаForced : Нет
Меню00:00:00.000 : :00. Intro00:01:31.880 : :01. Игра00:04:52.120 : :02. Мастер Скорбных Дел00:09:19.000 : :03. Вера Горит На Кострах00:13:41.800 : :04. Места Хватит Всем00:18:55.080 : :05. Тату00:23:50.760 : :06. Песни Мёртвых00:29:10.840 : :07. Кресты00:36:36.840 : :08. Високосный Век00:42:30.360 : :09. Щит И Меч00:45:29.480 : :10. 33 Жизни00:48:55.520 : :11. Heavy Ламбада00:54:45.680 : :12. Кто Кого?00:57:08.480 : :13. Только Ты01:02:23.720 : :14. На Линии Огня01:05:54.760 : :15. За Гранью01:11:49.360 : :16. Время Варваров01:14:57.080 : :17. Пепел На Ветру01:19:37.880 : :18. Heroes01:23:20.400 : :19. Храни Меня01:26:09.240 : :20. Руки Прочь!

DVD#2

ОбщееУникальный идентификатор : 177524056331930807459050700646856319084 (0x858DE3BC6C98B770A5DC229F026CE06C)Полное имя : C:\Users\Zelgadiss Graywords\Downloads\FromTorrents\Мои Раздачи\Мастер - XX Лет (DVDRip-AVC)\DVD#2.mkvФормат файла : MatroskaВерсия формата : Version 2Размер файла : 1,22 ГбайтПродолжительность : 1 ч. 4 м.Общий поток : 2722 Кбит/секДата кодирования : UTC 2015-02-23 19:51:32Программа кодирования : mkvmerge v7.0.0 ('Where We Going') 32bit built on Jun 9 2014 15:08:34Библиотека кодирования : libebml v1.3.0 + libmatroska v1.4.1DURATION : 01:04:05.880000000NUMBER_OF_FRAMES : 160245NUMBER_OF_BYTES : 153835200_STATISTICS_WRITING_APP : mkvmerge v7.0.0 ('Where We Going') 32bit built on Jun 9 2014 15:08:34_STATISTICS_WRITING_DATE_UTC : 2015-02-23 19:51:32_STATISTICS_TAGS : BPS DURATION NUMBER_OF_FRAMES NUMBER_OF_BYTES
ВидеоИдентификатор : 1Формат файла : AVCФормат файла/Информация : Advanced Video CodecПрофиль формата : High@L4.1Параметр CABAC формата : ДаПараметр ReFrames формата : 8 кадровИдентификатор кодека : V_MPEG4/ISO/AVCПродолжительность : 1 ч. 4 м.Битрейт : 2400 Кбит/секШирина : 720 пикселейВысота : 528 пикселейСоотношение сторон : 4:3Режим частоты кадров : ПостоянныйЧастота кадров : 25,000 кадров/секЦветовое пространство : YUVСубдискретизация насыщенности : 4:2:0Битовая глубина : 8 битТип развёртки : ПрогрессивнаяБит/(Пиксели*Кадры) : 0.253Размер потока : 1,05 Гбайт (86%)Заголовок : AVC, 25 fps, 2400 kbps, 720*528, 4:3Библиотека кодирования : x264 core 142 r2431 ac76440Настройки программы : cabac=1 / ref=8 / deblock=1:-1:-1 / analyse=0x3:0x133 / me=umh / subme=9 / psy=1 / psy_rd=1.00:0.15 / mixed_ref=1 / me_range=16 / chroma_me=1 / trellis=2 / 8x8dct=1 / cqm=0 / deadzone=21,11 / fast_pskip=1 / chroma_qp_offset=-3 / threads=6 / lookahead_threads=1 / sliced_threads=0 / nr=0 / decimate=1 / interlaced=0 / bluray_compat=0 / constrained_intra=0 / bframes=6 / b_pyramid=0 / b_adapt=2 / b_bias=0 / direct=3 / weightb=1 / open_gop=0 / weightp=2 / keyint=250 / keyint_min=25 / scenecut=40 / intra_refresh=0 / rc_lookahead=60 / rc=2pass / mbtree=1 / bitrate=2400 / ratetol=1.0 / qcomp=0.60 / qpmin=10 / qpmax=51 / qpstep=4 / cplxblur=20.0 / qblur=0.5 / vbv_maxrate=17500 / vbv_bufsize=14000 / nal_hrd=none / filler=0 / ip_ratio=1.40 / aq=1:1.00Язык : EnglishDefault : ДаForced : НетDURATION : 01:04:05.800000000NUMBER_OF_FRAMES : 96145NUMBER_OF_BYTES : 1153706159_STATISTICS_WRITING_APP : mkvmerge v7.0.0 ('Where We Going') 32bit built on Jun 9 2014 15:08:34_STATISTICS_WRITING_DATE_UTC : 2015-02-23 19:51:32_STATISTICS_TAGS : BPS DURATION NUMBER_OF_FRAMES NUMBER_OF_BYTES
АудиоИдентификатор : 2Формат файла : MPEG AudioВерсия формата : Version 1Профиль формата : Layer 3Режим : Joint stereoИдентификатор кодека : A_MPEG/L3Идентификатор кодека/Подсказка : MP3Продолжительность : 1 ч. 4 м.Вид битрейта : ПостоянныйБитрейт : 320 Кбит/секКаналы : 2 каналаЧастота : 48,0 КГцМетод сжатия : С потерямиРазмер потока : 147 Мбайт (12%)Заголовок : MP3, 320 kbps, 48 kHz, 16 bit, 2 chБиблиотека кодирования : LAME3.99rНастройки программы : -m j -V 4 -q 2 -lowpass 20.5Default : ДаForced : Нет
Меню00:00:00.000 : :00. Интро00:00:35.400 : :01. Не Хотим00:03:33.960 : :02. Берегись00:07:21.440 : :03. Палачи00:12:43.840 : :04. Ещё Раз Ночь00:17:45.680 : :05. Игры Не Для Нас00:22:49.760 : :06. Торреро00:28:20.520 : :07. Без Тебя00:33:14.320 : :08. Икар00:37:54.160 : :09. Здесь Куют Металл00:45:36.680 : :10. Встань, Страх Преодолей00:50:56.840 : :11. Воля И Разум00:56:45.640 : :12. Мастер


[galltoto.com]_t_4947466.torrent
Торрент: Зарегистрирован ·  [ 2017-02-16 20:42 ] ·  5d5e434e308eaaf6cabf696a30788a862fddc178

14 KB

Статус: проверено
Скачан: 0 раз
Размер: 2.73 GB
Оценка: 
(Голосов: 0)
Сказали спасибо: 0  Спасибо
Похожие темы
[Профиль]    [ЛС]
Показать сообщения:    
Ответить на тему

Текущее время: Сегодня 19:37

Часовой пояс: GMT + 7



Вы не можете начинать темы
Вы не можете отвечать на сообщения
Вы не можете редактировать свои сообщения
Вы не можете удалять свои сообщения
Вы не можете голосовать в опросах
Вы не можете прикреплять файлы к сообщениям
Вы можете скачивать файлы


Watch This Link! | Battery Watch - Free Power Consumption Monitor | 49 Únos