(Шансон) [CD] Виктор Ночной - Новое и лучшее 3 - 2002, FLAC (tracks+.cue), lossless

Ответить на тему
Статистика раздачи [Обновить пиров]
Размер:  554 MB   |    Зарегистрирован:  1 год   |    Скачан:  0 раз

Полного источника не было: Никогда

 
   
 
 
 
Автор Сообщение

galltoto.com

Создавать темы 18-Янв-2018 21:02

[Цитировать]

Виктор Ночной / Новое и лучшее 3
Жанр: Шансон
Носитель: CD
Год издания: 2002
Издатель (лейбл): KDK
Аудиокодек: FLAC (*.flac)
Тип рипа: tracks+.cue
Битрейт аудио: lossless
Продолжительность: 65:40
Источник (релизер): собственный рип
Наличие сканов в содержимом раздачи: да
Треклист:
01. Виктор Ночной - Забей! [3:04]
02. Виктор Ночной - Лежал В Траве С Девчёнкою [4:46]
03. Виктор Ночной - Чих-Пых [2:05]
04. Виктор Ночной - Алёнушка [2:49]
05. Виктор Ночной - Раз В Кузнечном Переулке [5:11]
06. Виктор Ночной - Письмо [4:09]
07. Виктор Ночной - Давай Начнём Всё Сначала [5:44]
08. Виктор Ночной - Я Люблю Тебя [5:16]
09. Виктор Ночной - С Днём Рождения [3:13]
10. Виктор Ночной - Где Та Страна? [3:15]
11. Виктор Ночной - Шахтёрская [4:30]
12. Виктор Ночной - Кресты [3:47]
13. Виктор Ночной - Здравствуй, Друг [2:54]
14. Виктор Ночной - Ленинград [4:58]
15. Виктор Ночной - Песня О Лётчиках [3:56]
16. Виктор Ночной - Разгибальщик Саксофонов [6:02]

Лог создания рипа

Exact Audio Copy V1.3 from 2. September 2016
EAC extraction logfile from 19. November 2017, 0:16
Виктор Ночной / Новое И Лучшее 3
Used drive : ASUS SDRW-08D2S-U Adapter: 9 ID: 2
Read mode : SecureUtilize accurate stream : YesDefeat audio cache : YesMake use of C2 pointers : No
Read offset correction : 6Overread into Lead-In and Lead-Out : NoFill up missing offset samples with silence : YesDelete leading and trailing silent blocks : NoNull samples used in CRC calculations : YesUsed interface : Installed external ASPI interfaceGap handling : Appended to previous track
Used output format : User Defined EncoderSelected bitrate : 128 kBit/sQuality : HighAdd ID3 tag : NoCommand line compressor : D:\flac-1.3.2-win\win64\flac.exeAdditional command line options : -8 -V -T "ARTIST=%artist%" -T "TITLE=%title%" -T "ALBUM=%albumtitle%" -T "DATE=%year%" -T "TRACKNUMBER=%tracknr%" -T "GENRE=%genre%" -T "COMMENT=ripped by Andy aka yetiisyou" %source%
TOC of the extracted CD
Track | Start | Length | Start sector | End sector --------------------------------------------------------- 1 | 0:00.00 | 3:03.49 | 0 | 13773 2 | 3:03.49 | 4:45.52 | 13774 | 35200 3 | 7:49.26 | 2:05.35 | 35201 | 44610 4 | 9:54.61 | 2:49.33 | 44611 | 57318 5 | 12:44.19 | 5:11.28 | 57319 | 80671 6 | 17:55.47 | 4:08.73 | 80672 | 99344 7 | 22:04.45 | 5:43.42 | 99345 | 125111 8 | 27:48.12 | 5:16.22 | 125112 | 148833 9 | 33:04.34 | 3:13.25 | 148834 | 163333 10 | 36:17.59 | 3:15.19 | 163334 | 177977 11 | 39:33.03 | 4:30.36 | 177978 | 198263 12 | 44:03.39 | 3:46.70 | 198264 | 215283 13 | 47:50.34 | 2:53.60 | 215284 | 228318 14 | 50:44.19 | 4:57.58 | 228319 | 250651 15 | 55:42.02 | 3:55.56 | 250652 | 268332 16 | 59:37.58 | 6:02.23 | 268333 | 295505
Track 1
Filename E:\!Ripped by Andy aka yetiisyou\Виктор Ночной - Новое и лучшее 3 [2005]\01. Виктор Ночной - Забей!.wav
Pre-gap length 0:00:02.00
Peak level 97.6 % Extraction speed 2.4 X Track quality 100.0 % Test CRC 5CE1F996 Copy CRC 5CE1F996 Accurately ripped (confidence 1) [4E0FFEC7] (AR v1) Copy OK
Track 2
Filename E:\!Ripped by Andy aka yetiisyou\Виктор Ночной - Новое и лучшее 3 [2005]\02. Виктор Ночной - Лежал В Траве С Девчёнкою.wav
Pre-gap length 0:00:02.00
Peak level 100.0 % Extraction speed 2.9 X Track quality 100.0 % Test CRC 2EC8F135 Copy CRC 2EC8F135 Accurately ripped (confidence 1) [9D56EF44] (AR v1) Copy OK
Track 3
Filename E:\!Ripped by Andy aka yetiisyou\Виктор Ночной - Новое и лучшее 3 [2005]\03. Виктор Ночной - Чих-Пых.wav
Pre-gap length 0:00:02.00
Peak level 100.0 % Extraction speed 2.0 X Track quality 99.9 % Test CRC 9A2610EA Copy CRC 9A2610EA Accurately ripped (confidence 1) [6919C4A1] (AR v1) Copy OK
Track 4
Filename E:\!Ripped by Andy aka yetiisyou\Виктор Ночной - Новое и лучшее 3 [2005]\04. Виктор Ночной - Алёнушка.wav
Pre-gap length 0:00:02.00
Peak level 100.0 % Extraction speed 3.0 X Track quality 100.0 % Test CRC 880ABCD9 Copy CRC 880ABCD9 Accurately ripped (confidence 1) [2FEC1BC2] (AR v1) Copy OK
Track 5
Filename E:\!Ripped by Andy aka yetiisyou\Виктор Ночной - Новое и лучшее 3 [2005]\05. Виктор Ночной - Раз В Кузнечном Переулке.wav
Pre-gap length 0:00:02.00
Peak level 98.0 % Extraction speed 3.5 X Track quality 100.0 % Test CRC 9D230733 Copy CRC 9D230733 Accurately ripped (confidence 1) [3ECE9F2C] (AR v1) Copy OK
Track 6
Filename E:\!Ripped by Andy aka yetiisyou\Виктор Ночной - Новое и лучшее 3 [2005]\06. Виктор Ночной - Письмо.wav
Pre-gap length 0:00:02.00
Peak level 100.0 % Extraction speed 3.1 X Track quality 99.9 % Test CRC A3342E13 Copy CRC A3342E13 Accurately ripped (confidence 1) [489B9A90] (AR v1) Copy OK
Track 7
Filename E:\!Ripped by Andy aka yetiisyou\Виктор Ночной - Новое и лучшее 3 [2005]\07. Виктор Ночной - Давай Начнём Всё Сначала.wav
Pre-gap length 0:00:02.00
Peak level 100.0 % Extraction speed 4.1 X Track quality 100.0 % Test CRC F4B9CA03 Copy CRC F4B9CA03 Accurately ripped (confidence 1) [11EC2F55] (AR v1) Copy OK
Track 8
Filename E:\!Ripped by Andy aka yetiisyou\Виктор Ночной - Новое и лучшее 3 [2005]\08. Виктор Ночной - Я Люблю Тебя.wav
Pre-gap length 0:00:02.00
Peak level 100.0 % Extraction speed 4.3 X Track quality 100.0 % Test CRC 311F9197 Copy CRC 311F9197 Accurately ripped (confidence 1) [2832680C] (AR v1) Copy OK
Track 9
Filename E:\!Ripped by Andy aka yetiisyou\Виктор Ночной - Новое и лучшее 3 [2005]\09. Виктор Ночной - С Днём Рождения.wav
Pre-gap length 0:00:02.00
Peak level 98.8 % Extraction speed 4.2 X Track quality 100.0 % Test CRC F039AF8D Copy CRC F039AF8D Accurately ripped (confidence 1) [1BDB723E] (AR v1) Copy OK
Track 10
Filename E:\!Ripped by Andy aka yetiisyou\Виктор Ночной - Новое и лучшее 3 [2005]\10. Виктор Ночной - Где Та Страна.wav
Pre-gap length 0:00:02.00
Peak level 100.0 % Extraction speed 4.3 X Track quality 100.0 % Test CRC E89616F4 Copy CRC E89616F4 Accurately ripped (confidence 1) [48D5101F] (AR v1) Copy OK
Track 11
Filename E:\!Ripped by Andy aka yetiisyou\Виктор Ночной - Новое и лучшее 3 [2005]\11. Виктор Ночной - Шахтёрская.wav
Pre-gap length 0:00:02.00
Peak level 100.0 % Extraction speed 4.7 X Track quality 100.0 % Test CRC A49C46E6 Copy CRC A49C46E6 Accurately ripped (confidence 1) [2201AAE1] (AR v1) Copy OK
Track 12
Filename E:\!Ripped by Andy aka yetiisyou\Виктор Ночной - Новое и лучшее 3 [2005]\12. Виктор Ночной - Кресты.wav
Pre-gap length 0:00:02.00
Peak level 100.0 % Extraction speed 4.8 X Track quality 100.0 % Test CRC 072EB3CC Copy CRC 072EB3CC Accurately ripped (confidence 1) [432A86F5] (AR v1) Copy OK
Track 13
Filename E:\!Ripped by Andy aka yetiisyou\Виктор Ночной - Новое и лучшее 3 [2005]\13. Виктор Ночной - Здравствуй, Друг.wav
Pre-gap length 0:00:02.00
Peak level 100.0 % Extraction speed 4.6 X Track quality 100.0 % Test CRC B7CAEAB1 Copy CRC B7CAEAB1 Accurately ripped (confidence 1) [4E46EECC] (AR v1) Copy OK
Track 14
Filename E:\!Ripped by Andy aka yetiisyou\Виктор Ночной - Новое и лучшее 3 [2005]\14. Виктор Ночной - Ленинград.wav
Pre-gap length 0:00:02.00
Peak level 100.0 % Extraction speed 4.5 X Track quality 99.9 % Test CRC 83897BF2 Copy CRC 83897BF2 Accurately ripped (confidence 1) [EB2E6A58] (AR v1) Copy OK
Track 15
Filename E:\!Ripped by Andy aka yetiisyou\Виктор Ночной - Новое и лучшее 3 [2005]\15. Виктор Ночной - Песня О Лётчиках.wav
Pre-gap length 0:00:02.00
Peak level 100.0 % Extraction speed 5.1 X Track quality 100.0 % Test CRC 9D8A6A3D Copy CRC 9D8A6A3D Accurately ripped (confidence 1) [8B51B81D] (AR v1) Copy OK
Track 16
Filename E:\!Ripped by Andy aka yetiisyou\Виктор Ночной - Новое и лучшее 3 [2005]\16. Виктор Ночной - Разгибальщик Саксофонов.wav
Pre-gap length 0:00:02.00
Peak level 100.0 % Extraction speed 2.5 X Track quality 100.0 % Test CRC 84551A87 Copy CRC 84551A87 Accurately ripped (confidence 1) [B916A980] (AR v1) Copy OK
All tracks accurately ripped
No errors occurred
End of status report
---- CUETools DB Plugin V2.1.6
[CTDB TOCID: WoRsNAEHe.9I36zyqxNbCKNhocg-] disk not present in databaseSubmit result: WoRsNAEHe.9I36zyqxNbCKNhocg- has been uploaded
==== Log checksum ED5C51E3CD641667CDEF5AF1912BB9F00B20BAF795668195080D1E597AE14D71 ====

Содержание индексной карты (.CUE)

REM GENRE ChansonREM DATE 2005REM DISCID 000F6410REM COMMENT "ExactAudioCopy v1.3"PERFORMER "Виктор Ночной"TITLE "Новое И Лучшее 3"REM COMPOSER ""FILE "01. Виктор Ночной - Забей!.wav" WAVE TRACK 01 AUDIO TITLE "Забей!" PERFORMER "Виктор Ночной" REM COMPOSER "" FLAGS DCP INDEX 01 00:00:00 TRACK 02 AUDIO TITLE "Лежал В Траве С Девчёнкою" PERFORMER "Виктор Ночной" REM COMPOSER "" FLAGS DCP INDEX 00 03:01:49FILE "02. Виктор Ночной - Лежал В Траве С Девчёнкою.wav" WAVE INDEX 01 00:00:00 TRACK 03 AUDIO TITLE "Чих-Пых" PERFORMER "Виктор Ночной" REM COMPOSER "" FLAGS DCP INDEX 00 04:43:52FILE "03. Виктор Ночной - Чих-Пых.wav" WAVE INDEX 01 00:00:00 TRACK 04 AUDIO TITLE "Алёнушка" PERFORMER "Виктор Ночной" REM COMPOSER "" FLAGS DCP INDEX 00 02:03:35FILE "04. Виктор Ночной - Алёнушка.wav" WAVE INDEX 01 00:00:00 TRACK 05 AUDIO TITLE "Раз В Кузнечном Переулке" PERFORMER "Виктор Ночной" REM COMPOSER "" FLAGS DCP INDEX 00 02:47:33FILE "05. Виктор Ночной - Раз В Кузнечном Переулке.wav" WAVE INDEX 01 00:00:00 TRACK 06 AUDIO TITLE "Письмо" PERFORMER "Виктор Ночной" REM COMPOSER "" FLAGS DCP INDEX 00 05:09:28FILE "06. Виктор Ночной - Письмо.wav" WAVE INDEX 01 00:00:00 TRACK 07 AUDIO TITLE "Давай Начнём Всё Сначала" PERFORMER "Виктор Ночной" REM COMPOSER "" FLAGS DCP INDEX 00 04:06:73FILE "07. Виктор Ночной - Давай Начнём Всё Сначала.wav" WAVE INDEX 01 00:00:00 TRACK 08 AUDIO TITLE "Я Люблю Тебя" PERFORMER "Виктор Ночной" REM COMPOSER "" FLAGS DCP INDEX 00 05:41:42FILE "08. Виктор Ночной - Я Люблю Тебя.wav" WAVE INDEX 01 00:00:00 TRACK 09 AUDIO TITLE "С Днём Рождения" PERFORMER "Виктор Ночной" REM COMPOSER "" FLAGS DCP INDEX 00 05:14:22FILE "09. Виктор Ночной - С Днём Рождения.wav" WAVE INDEX 01 00:00:00 TRACK 10 AUDIO TITLE "Где Та Страна?" PERFORMER "Виктор Ночной" REM COMPOSER "" FLAGS DCP INDEX 00 03:11:25FILE "10. Виктор Ночной - Где Та Страна.wav" WAVE INDEX 01 00:00:00 TRACK 11 AUDIO TITLE "Шахтёрская" PERFORMER "Виктор Ночной" REM COMPOSER "" FLAGS DCP INDEX 00 03:13:19FILE "11. Виктор Ночной - Шахтёрская.wav" WAVE INDEX 01 00:00:00 TRACK 12 AUDIO TITLE "Кресты" PERFORMER "Виктор Ночной" REM COMPOSER "" FLAGS DCP INDEX 00 04:28:36FILE "12. Виктор Ночной - Кресты.wav" WAVE INDEX 01 00:00:00 TRACK 13 AUDIO TITLE "Здравствуй, Друг" PERFORMER "Виктор Ночной" REM COMPOSER "" FLAGS DCP INDEX 00 03:44:70FILE "13. Виктор Ночной - Здравствуй, Друг.wav" WAVE INDEX 01 00:00:00 TRACK 14 AUDIO TITLE "Ленинград" PERFORMER "Виктор Ночной" REM COMPOSER "" FLAGS DCP INDEX 00 02:51:60FILE "14. Виктор Ночной - Ленинград.wav" WAVE INDEX 01 00:00:00 TRACK 15 AUDIO TITLE "Песня О Лётчиках" PERFORMER "Виктор Ночной" REM COMPOSER "" FLAGS DCP INDEX 00 04:55:58FILE "15. Виктор Ночной - Песня О Лётчиках.wav" WAVE INDEX 01 00:00:00 TRACK 16 AUDIO TITLE "Разгибальщик Саксофонов" PERFORMER "Виктор Ночной" REM COMPOSER "" FLAGS DCP INDEX 00 03:53:56FILE "16. Виктор Ночной - Разгибальщик Саксофонов.wav" WAVE INDEX 01 00:00:00


[galltoto.com]_t_5507781.torrent
Торрент: Зарегистрирован ·  [ 2018-01-18 21:00 ] ·  d1698680ae452cc1702558a4c1ff09e825175c75

13 KB

Статус: проверено
Скачан: 0 раз
Размер: 554 MB
Оценка: 
(Голосов: 0)
Сказали спасибо: 0  Спасибо
Похожие темы
[Профиль]    [ЛС]
Показать сообщения:    
Ответить на тему

Текущее время: Сегодня 13:26

Часовой пояс: GMT + 7



Вы не можете начинать темы
Вы не можете отвечать на сообщения
Вы не можете редактировать свои сообщения
Вы не можете удалять свои сообщения
Вы не можете голосовать в опросах
Вы не можете прикреплять файлы к сообщениям
Вы можете скачивать файлы


Archivo 253 | Historyczne | Thonkmop