(Шансон) [CD] Александр Акатов-Тверской - Дворовые истории - 2007, FLAC (image+.cue), lossless

Ответить на тему
Статистика раздачи [Обновить пиров]
Размер:  309 MB   |    Зарегистрирован:  1 год   |    Скачан:  0 раз

Полного источника не было: Никогда

 
   
 
 
 
Автор Сообщение

galltoto.com

Создавать темы 04-Янв-2018 18:30

[Цитировать]

Александр Акатов-Тверской / Дворовые истории
Жанр: Шансон
Носитель: CD
Страна-производитель диска (релиза): Россия
Год издания: 2007
Издатель (лейбл): TSP
Номер по каталогу: 07003-02
Страна исполнителя (группы): Россия
Аудиокодек: FLAC (*.flac)
Тип рипа: image+.cue
Битрейт аудио: lossless
Продолжительность: 00:41:22
Источник (релизер): Свой рип
Наличие сканов в содержимом раздачи: да
Треклист:
01. Накорми меня, мама...
02. Загулял
03. Ну, блин
04. Ах, Сочи, Сочи
05. Автомеханик
06. Анжелика
07. Старая подруга
08. Бомжонок
09. По рюмочке
10. День рождения
11. Баня
12. Деревенька

Лог создания рипа

Exact Audio Copy V1.3 from 2. September 2016
Отчёт EAC об извлечении, выполненном 30. декабря 2017, 13:27
Александр Акатов-Тверской / Дворовые истории
Дисковод: ASUS DRW-24D5MT Adapter: 1 ID: 0
Режим чтения : ДостоверностьИспользование точного потока : ДаОтключение кэша аудио : ДаИспользование указателей C2 : Нет
Коррекция смещения при чтении : 6Способность читать области Lead-in и Lead-out : НетЗаполнение пропущенных сэмплов тишиной : ДаУдаление блоков с тишиной в начале и конце : НетПри вычислениях CRC использовались нулевые сэмплы : ДаИнтерфейс : Встроенный Win32-интерфейс для Win NT/2000
Выходной формат : Пользовательский кодировщикВыбранный битрейт : 128 kBit/sКачество : ВысокийДобавление ID3-тега : НетУтилита сжатия : C:\Program Files (x86)\Exact Audio Copy\Flac\flac.exeДополнительные параметры : -V -8 -T "Date=%year%" -T "Genre=%genre%" %source%
TOC извлечённого CD
Трек | Старт | Длительность | Начальный сектор | Конечный сектор --------------------------------------------------------------------- 1 | 0:00.00 | 3:26.60 | 0 | 15509 2 | 3:26.60 | 3:36.00 | 15510 | 31709 3 | 7:02.60 | 3:18.55 | 31710 | 46614 4 | 10:21.40 | 3:30.31 | 46615 | 62395 5 | 13:51.71 | 2:38.50 | 62396 | 74295 6 | 16:30.46 | 3:15.16 | 74296 | 88936 7 | 19:45.62 | 4:09.28 | 88937 | 107639 8 | 23:55.15 | 3:35.54 | 107640 | 123818 9 | 27:30.69 | 3:29.30 | 123819 | 139523 10 | 31:00.24 | 3:24.67 | 139524 | 154890 11 | 34:25.16 | 3:22.34 | 154891 | 170074 12 | 37:47.50 | 3:33.43 | 170075 | 186092
Характеристики диапазона извлечения и сообщения об ошибках
Выбранный диапазон
Имя файла E:\Раздачи\Папки\Александр Акатов-Тверской - Дворовые истории\Александр Акатов-Тверской - Дворовые истории.wav
Пиковый уровень 97.8 % Скорость извлечения 2.8 X Качество диапазона 100.0 % CRC теста 50FD0FF1 CRC копии 50FD0FF1 Копирование... OK
Ошибок не произошло
AccurateRip: сводка
Трек 1 отсутствует в базе данныхТрек 2 отсутствует в базе данныхТрек 3 отсутствует в базе данныхТрек 4 отсутствует в базе данныхТрек 5 отсутствует в базе данныхТрек 6 отсутствует в базе данныхТрек 7 отсутствует в базе данныхТрек 8 отсутствует в базе данныхТрек 9 отсутствует в базе данныхТрек 10 отсутствует в базе данныхТрек 11 отсутствует в базе данныхТрек 12 отсутствует в базе данных
Ни одного трека нет в базе AccurateRip
Конец отчёта
==== Контрольная сумма отчёта E162D3DBA81E379F50D34941ADC94B5AED4D7C6AE051F5C2389926DEDBC34AB6 ====

Содержание индексной карты (.CUE)

REM GENRE ChansonREM DATE 2007REM DISCID A409B10CREM COMMENT "ExactAudioCopy v1.3"PERFORMER "Александр Акатов-Тверской "TITLE "Дворовые истории"REM COMPOSER ""FILE "Александр Акатов-Тверской - Дворовые истории.flac" WAVE TRACK 01 AUDIO TITLE "Накорми меня, мама..." PERFORMER "Александр Акатов-Тверской " REM COMPOSER "" INDEX 01 00:00:00 TRACK 02 AUDIO TITLE "Загулял" PERFORMER "Александр Акатов-Тверской " REM COMPOSER "" INDEX 01 03:26:60 TRACK 03 AUDIO TITLE "Ну, блин" PERFORMER "Александр Акатов-Тверской " REM COMPOSER "" INDEX 01 07:02:60 TRACK 04 AUDIO TITLE "Ах, Сочи, Сочи" PERFORMER "Александр Акатов-Тверской " REM COMPOSER "" INDEX 01 10:21:40 TRACK 05 AUDIO TITLE "Автомеханик" PERFORMER "Александр Акатов-Тверской " REM COMPOSER "" INDEX 01 13:51:71 TRACK 06 AUDIO TITLE "Анжелика" PERFORMER "Александр Акатов-Тверской " REM COMPOSER "" INDEX 01 16:30:46 TRACK 07 AUDIO TITLE "Старая подруга" PERFORMER "Александр Акатов-Тверской " REM COMPOSER "" INDEX 01 19:45:62 TRACK 08 AUDIO TITLE "Бомжонок" PERFORMER "Александр Акатов-Тверской " REM COMPOSER "" INDEX 01 23:55:15 TRACK 09 AUDIO TITLE "По рюмочке" PERFORMER "Александр Акатов-Тверской " REM COMPOSER "" INDEX 01 27:30:69 TRACK 10 AUDIO TITLE "День рождения" PERFORMER "Александр Акатов-Тверской " REM COMPOSER "" INDEX 01 31:00:24 TRACK 11 AUDIO TITLE "Баня" PERFORMER "Александр Акатов-Тверской " REM COMPOSER "" INDEX 01 34:25:16 TRACK 12 AUDIO TITLE "Деревенька" PERFORMER "Александр Акатов-Тверской " REM COMPOSER "" INDEX 01 37:47:50

Лог проверки качества

-----------------------
DON'T MODIFY THIS FILE
-----------------------
PERFORMER: auCDtect Task Manager, ver. 1.6.0 RC1 build 1.6.0.1Copyright (c) 2008-2010 y-soft. All rights reservedhttp://y-soft.org
ANALYZER: auCDtect: CD records authenticity detector, version 0.8.2Copyright (c) 2004 Oleg Berngardt. All rights reserved.Copyright (c) 2004 Alexander Djourik. All rights reserved.
FILE: Александр Акатов-Тверской - Дворовые истории.flac Size: 301576461 Hash: 36D98D5C4E150CE5491A2C6BE1AF5239 Accuracy: -m0 Conclusion: CDDA 100% Signature: 27102F6C7FC408A48693E235C72D1120E94F689F


[galltoto.com]_t_5502331.torrent
Торрент: Зарегистрирован ·  [ 2018-01-04 18:30 ] ·  64d49c0013dc1fbc907922dc3ac365394348df4d

13 KB

Статус: проверено
Скачан: 0 раз
Размер: 309 MB
Оценка: 
(Голосов: 0)
Сказали спасибо: 0  Спасибо
Похожие темы
[Профиль]    [ЛС]
Показать сообщения:    
Ответить на тему

Текущее время: Сегодня 13:31

Часовой пояс: GMT + 7



Вы не можете начинать темы
Вы не можете отвечать на сообщения
Вы не можете редактировать свои сообщения
Вы не можете удалять свои сообщения
Вы не можете голосовать в опросах
Вы не можете прикреплять файлы к сообщениям
Вы можете скачивать файлы


Special Force Behind The Enemy Line | Newly Listed | Download