(Шансон) Группа «Централ» - Дискография (2 CD) - 2015-2017, FLAC (image+.cue), lossless

Ответить на тему
Статистика раздачи [Обновить пиров]
Размер:  692 MB   |    Зарегистрирован:  1 год 1 месяц   |    Скачан:  0 раз

Полного источника не было: Никогда

 
   
 
 
 
Автор Сообщение

galltoto.com

Создавать темы 05-Дек-2017 20:43

[Цитировать]

- ---Группа «Централ»--- - - ---Жанр: Шансон
Годы издания: 2015-2017
Аудиокодек: FLAC | MP3
Тип рипа: tracks
Битрейт аудио: lossless
Продолжительность: 01:26:15
Источник (релизер): [url=profile.php?mode=viewprofile&u=22110310]shansonchik[/url]
Наличие сканов в содержимом раздачи: да | 600 dpi |
--- -Альбомы-

| 00:42:56 | – 2015 – Запах воли

-01 - Запах воли
02 - Мама, прости
03 - Брат
04 - Запретка
05 - Может быть
06 - Осень (feat. Дмитрий Бирюков)
07 - Воровала яблоки шпана (feat. Дмитрий Бирюков, Мафик)
08 - Не скучай
09 - Погадай, цыганочка
10 - Держись (feat. Дмитрий Бирюков)

Лог создания рипа

Exact Audio Copy V1.0 beta 4 from 7. December 2014
Отчёт EAC об извлечении, выполненном 28. ноября 2017, 20:47
Группа «Централ» / Запах воли
Дисковод: ASUS DRW-1814BL Adapter: 1 ID: 0
Режим чтения : ДостоверностьИспользование точного потока : ДаОтключение кэша аудио : ДаИспользование указателей C2 : Нет
Коррекция смещения при чтении : 6Способность читать области Lead-in и Lead-out : НетЗаполнение пропущенных сэмплов тишиной : ДаУдаление блоков с тишиной в начале и конце : НетПри вычислениях CRC использовались нулевые сэмплы : ДаИнтерфейс : Встроенный Win32-интерфейс для Win NT/2000
Выходной формат : Пользовательский кодировщикВыбранный битрейт : 128 kBit/sКачество : ВысокийДобавление ID3-тега : НетУтилита сжатия : C:\Program Files\Exact Audio Copy\Flac\flac.exeДополнительные параметры : -V -8 -T "Date=%year%" -T "Genre=%genre%" %source%
TOC извлечённого CD
Трек | Старт | Длительность | Начальный сектор | Конечный сектор --------------------------------------------------------------------- 1 | 0:00.00 | 4:34.09 | 0 | 20558 2 | 4:34.09 | 3:32.74 | 20559 | 36532 3 | 8:07.08 | 3:58.40 | 36533 | 54422 4 | 12:05.48 | 4:26.07 | 54423 | 74379 5 | 16:31.55 | 3:32.51 | 74380 | 90330 6 | 20:04.31 | 4:57.03 | 90331 | 112608 7 | 25:01.34 | 3:35.33 | 112609 | 128766 8 | 28:36.67 | 7:00.32 | 128767 | 160298 9 | 35:37.24 | 2:59.56 | 160299 | 173779 10 | 38:37.05 | 4:19.49 | 173780 | 193253
Характеристики диапазона извлечения и сообщения об ошибках
Выбранный диапазон
Имя файла E:\shansonchik\Группа «Централ» - Запах воли.wav
Пиковый уровень 100.0 % Скорость извлечения 7.4 X Качество диапазона 100.0 % CRC теста 130B2414 CRC копии 130B2414 Копирование... OK
Ошибок не произошло
Конец отчёта
==== Контрольная сумма отчёта 9E1F30CD5EFE5D2DD8797E725C31634F8F328E5E4C19FEDF66BE73F9D071170D ====

Tau Analyzer

| 00:43:19 | – 2017 – Станция Централ

-01 - Станция Централ
02 - Соскучился
03 - Доченька
04 - Проводница
05 - Шансонье
06 - Звонок
07 - Вольняшка (feat. Мафик)
08 - Весна
09 - К.О.Т
10 - Жизнь моя
11 - Кедры

Лог создания рипа

Exact Audio Copy V1.0 beta 4 from 7. December 2014
Отчёт EAC об извлечении, выполненном 28. ноября 2017, 23:14
Группа «Централ» / Станция Централ
Дисковод: ASUS DRW-1814BL Adapter: 1 ID: 0
Режим чтения : ДостоверностьИспользование точного потока : ДаОтключение кэша аудио : ДаИспользование указателей C2 : Нет
Коррекция смещения при чтении : 6Способность читать области Lead-in и Lead-out : НетЗаполнение пропущенных сэмплов тишиной : ДаУдаление блоков с тишиной в начале и конце : НетПри вычислениях CRC использовались нулевые сэмплы : ДаИнтерфейс : Встроенный Win32-интерфейс для Win NT/2000
Выходной формат : Пользовательский кодировщикВыбранный битрейт : 128 kBit/sКачество : ВысокийДобавление ID3-тега : НетУтилита сжатия : C:\Program Files\Exact Audio Copy\Flac\flac.exeДополнительные параметры : -V -8 -T "Date=%year%" -T "Genre=%genre%" %source%
TOC извлечённого CD
Трек | Старт | Длительность | Начальный сектор | Конечный сектор --------------------------------------------------------------------- 1 | 0:00.00 | 4:38.14 | 0 | 20863 2 | 4:38.14 | 4:07.65 | 20864 | 39453 3 | 8:46.04 | 3:54.00 | 39454 | 57003 4 | 12:40.04 | 3:24.37 | 57004 | 72340 5 | 16:04.41 | 4:49.39 | 72341 | 94054 6 | 20:54.05 | 3:36.55 | 94055 | 110309 7 | 24:30.60 | 3:40.09 | 110310 | 126818 8 | 28:10.69 | 3:33.13 | 126819 | 142806 9 | 31:44.07 | 3:07.18 | 142807 | 156849 10 | 34:51.25 | 4:13.28 | 156850 | 175852 11 | 39:04.53 | 4:14.41 | 175853 | 194943
Характеристики диапазона извлечения и сообщения об ошибках
Выбранный диапазон
Имя файла E:\shansonchik\Группа «Централ» - Станция Централ.wav
Пиковый уровень 100.0 % Скорость извлечения 7.3 X Качество диапазона 99.9 % CRC теста 31ECBCF5 CRC копии 31ECBCF5 Копирование... OK
Ошибок не произошло
Конец отчёта
==== Контрольная сумма отчёта 411323E58F7E35817BF20732696962BC28C8C4892E6E24A3B380AF86C873239F ====

Tau Analyzer

-


[galltoto.com]_t_5486782.torrent
Торрент: Зарегистрирован ·  [ 2017-12-05 20:42 ] ·  f1ad4b91b37a8a48229c41f77029a68409beba15

15 KB

Статус: проверено
Скачан: 0 раз
Размер: 692 MB
Оценка: 
(Голосов: 0)
Сказали спасибо: 0  Спасибо
Похожие темы
[Профиль]    [ЛС]
Показать сообщения:    
Ответить на тему

Текущее время: Сегодня 13:24

Часовой пояс: GMT + 7



Вы не можете начинать темы
Вы не можете отвечать на сообщения
Вы не можете редактировать свои сообщения
Вы не можете удалять свои сообщения
Вы не можете голосовать в опросах
Вы не можете прикреплять файлы к сообщениям
Вы можете скачивать файлы


Strange Dragon | ละคร เขี้ยวราชสีห์ | └ Baby