(Шансон) Михаил Борисов - Еду я из Магадана - 2017, FLAC (image+.cue), lossless

Ответить на тему
Статистика раздачи [Обновить пиров]
Размер:  286 MB   |    Зарегистрирован:  1 год 1 месяц   |    Скачан:  0 раз

Полного источника не было: Никогда

 
   
 
 
 
Автор Сообщение

galltoto.com

Создавать темы 05-Дек-2017 20:43

[Цитировать]

Михаил Борисов / Еду я из Магадана-Жанр: Шансон / Год издания: 2017 / Аудиокодек: FLAC | MP3 / Тип рипа: image+.cue / Битрейт аудио: lossless / Продолжительность: 00:37:55
Источник (релизер): [url=profile.php?mode=viewprofile&u=22110310]shansonchik[/url] / Наличие сканов в содержимом раздачи: да | 600 dpi |
- -01 - Еду я из Магадана
02 - Воля-волюшка
03 - Сизые крылья
04 - Греет весна
05 - За друзей
06 - Камин
07 - От cыновей
08 - Судьбинушка
09 - Бутырка
10 - Снежинки

Лог создания рипа

Exact Audio Copy V1.0 beta 4 from 7. December 2014
Отчёт EAC об извлечении, выполненном 29. ноября 2017, 22:33
Михаил Борисов / Еду я из Магадана
Дисковод: ASUS DRW-1814BL Adapter: 1 ID: 0
Режим чтения : ДостоверностьИспользование точного потока : ДаОтключение кэша аудио : ДаИспользование указателей C2 : Нет
Коррекция смещения при чтении : 6Способность читать области Lead-in и Lead-out : НетЗаполнение пропущенных сэмплов тишиной : ДаУдаление блоков с тишиной в начале и конце : НетПри вычислениях CRC использовались нулевые сэмплы : ДаИнтерфейс : Встроенный Win32-интерфейс для Win NT/2000
Выходной формат : Пользовательский кодировщикВыбранный битрейт : 128 kBit/sКачество : ВысокийДобавление ID3-тега : НетУтилита сжатия : C:\Program Files\Exact Audio Copy\Flac\flac.exeДополнительные параметры : -V -8 -T "Date=%year%" -T "Genre=%genre%" %source%
TOC извлечённого CD
Трек | Старт | Длительность | Начальный сектор | Конечный сектор --------------------------------------------------------------------- 1 | 0:00.00 | 3:42.06 | 0 | 16655 2 | 3:42.06 | 3:30.62 | 16656 | 32467 3 | 7:12.68 | 3:44.12 | 32468 | 49279 4 | 10:57.05 | 3:57.13 | 49280 | 67067 5 | 14:54.18 | 2:55.54 | 67068 | 80246 6 | 17:49.72 | 3:52.40 | 80247 | 97686 7 | 21:42.37 | 3:30.23 | 97687 | 113459 8 | 25:12.60 | 3:56.71 | 113460 | 131230 9 | 29:09.56 | 4:06.37 | 131231 | 149717 10 | 33:16.18 | 4:39.03 | 149718 | 170645
Характеристики диапазона извлечения и сообщения об ошибках
Выбранный диапазон
Имя файла E:\shansonchik\Михаил Борисов - Еду я из Магадана.wav
Пиковый уровень 98.8 % Скорость извлечения 4.2 X Качество диапазона 100.0 % CRC теста 766918D4 CRC копии 766918D4 Копирование... OK
Ошибок не произошло
Конец отчёта
==== Контрольная сумма отчёта 71E2CEED6AA8C833F7A233F5974B17883232DB8B9E610F93D393D7A165966BDD ====

Tau Analyzer

-


[galltoto.com]_t_5486883.torrent
Торрент: Зарегистрирован ·  [ 2017-12-05 20:42 ] ·  3baa8b110d989400d3bc79a241c7efeb32e5b861

12 KB

Статус: проверено
Скачан: 0 раз
Размер: 286 MB
Оценка: 
(Голосов: 0)
Сказали спасибо: 0  Спасибо
Похожие темы
[Профиль]    [ЛС]
Показать сообщения:    
Ответить на тему

Текущее время: Сегодня 13:23

Часовой пояс: GMT + 7



Вы не можете начинать темы
Вы не можете отвечать на сообщения
Вы не можете редактировать свои сообщения
Вы не можете удалять свои сообщения
Вы не можете голосовать в опросах
Вы не можете прикреплять файлы к сообщениям
Вы можете скачивать файлы


Transformers: De besegrades hämnd | 【VtuberMMD】俺の兄が画面から出てこようとする | Healthy Origins Vitamin D3, 5000iu x 360 Softgels D-3 5,000IU