(Ethereal / Modern Classical / Ambient) [WEB] Cyclamen Valley - A Mist-Flowers Exhibition (Reissue) - 2017 (1996), FLAC (tracks), lossless

Ответить на тему
Статистика раздачи [Обновить пиров]
Размер:  270 MB   |    Зарегистрирован:  1 год 1 месяц   |    Скачан:  0 раз

Полного источника не было: Никогда

 
   
 
 
 
Автор Сообщение

galltoto.com

Создавать темы 30-Ноя-2017 20:27

[Цитировать]

Cyclamen Valley / A Mist-Flowers Exhibition
Жанр: Ethereal / Modern Classical / Ambient
Носитель: WEB
Год издания: 2017 (1996)
Издатель (лейбл): Self-Released
Номер по каталогу: none
Страна исполнителя (группы): Belgium
Аудиокодек: FLAC (*.flac)
Тип рипа: tracks
Битрейт аудио: lossless
Продолжительность: 00:55:35
Источник (релизер): bandcamp.com
Наличие сканов в содержимом раздачи: нет
Трек-лист:
01. First Thema For Antena. (02:05)
02. Winter's Garden. (03:48)
03. Flower's Grave. (04:18)
04. Quarter To Seven. (04:25)
05. Constance. (03:30)
06. Roses Of Final Flight. (05:12)
07. Mist Flowers Exhibition. (03:02)
08. Libero Stellarum. (04:16)
09. Aveux Et Anathemes. (06:00)
10. Caedes Sub Luna. (03:15)
11. Slowly Sink Into Obsession. (03:26)
12. Sweet Lust. (02:23)
13. Myrna's Domain. (02:45)
14. Selene's Trumpet. (03:42)
15. Heaven's Bells. (Bonus Track) (03:28)

Лог проверки качества

-----------------------
DON'T MODIFY THIS FILE
-----------------------
PERFORMER: auCDtect Task Manager, ver. 1.6.0 RC1 build 1.6.0.1Copyright (c) 2008-2010 y-soft. All rights reservedhttp://y-soft.org
ANALYZER: auCDtect: CD records authenticity detector, version 0.8.2Copyright (c) 2004 Oleg Berngardt. All rights reserved.Copyright (c) 2004 Alexander Djourik. All rights reserved.
FILE: 01. First Thema For Antena.flac Size: 12243188 Hash: AA4C76D83A1C122AFA79C6D3AAF50C2E Accuracy: -m0 Conclusion: CDDA 100% Signature: 39158600A24F5AF4B91AA1CE69374AA78D95655DFILE: 02. Winter's Garden.flac Size: 20208716 Hash: 1963AF9FD7411EB3E1984404DA267A91 Accuracy: -m0 Conclusion: CDDA 99% Signature: D5D9C2794EB0EFF1E75B51BDB37BCEBA2CA8876FFILE: 03. Flower's Grave.flac Size: 21109258 Hash: 4CD88678FC353672E33072F9E9C939B2 Accuracy: -m0 Conclusion: CDDA 100% Signature: 01168D05B0ED9B09D6C7BA0C260B750ABC620E87FILE: 04. Quarter To Seven.flac Size: 23110552 Hash: 41FB27F46B9791C4CF11E0E61415DD17 Accuracy: -m0 Conclusion: CDDA 100% Signature: A650F986096D5AE5E85A4D17A7D4ACF10BF4427AFILE: 05. Constance.flac Size: 15824349 Hash: 5D5416B7BD4A394E38CF4587160F8E7D Accuracy: -m0 Conclusion: CDDA 62% Signature: 451331130C76D2451CA700F65C2778C32DE4DE1CFILE: 06. Roses Of Final Flight.flac Size: 25050842 Hash: 6C2319B108C445E3D3C1E369890C9669 Accuracy: -m0 Conclusion: CDDA 94% Signature: 44C92FFC24C7BB0DAEA00D3F9E4DC16075AC0D69FILE: 07. Mist Flowers Exhibition.flac Size: 13802858 Hash: 2A51DA1FA4C529C7A7D77CDD290B863C Accuracy: -m0 Conclusion: CDDA 100% Signature: FF1AA218AB3F13F528F283517771FD3A186D3FC7FILE: 08. Libero Stellarum.flac Size: 25085478 Hash: EE804C73E0006D34952F87BD3A36A2AE Accuracy: -m0 Conclusion: CDDA 99% Signature: 0896AEC874A9EE276BF8E439BDDD3E7C2FAE5153FILE: 09. Aveux Et Anathemes.flac Size: 23466651 Hash: 811BD67B4E5CAAF6C5A51264B188B1F0 Accuracy: -m0 Conclusion: CDDA 94% Signature: 7B9A3A1F63FCCC6A03A95B469829ED8AFA852059FILE: 10. Caedes Sub Luna.flac Size: 18464468 Hash: 11FB8D54EA5B5A657D02EEFBA3E7F618 Accuracy: -m0 Conclusion: CDDA 100% Signature: 9634EA45D956DB106DDE894FBF8D3A8816606A33FILE: 11. Slowly Sink Into Obsession.flac Size: 14681499 Hash: 1E10EF6DBC3E73B38AAF2ADF3EC6D081 Accuracy: -m0 Conclusion: CDDA 100% Signature: FB2EE35C3EF281C0D69AD64152B2DAE688C8C172FILE: 12. Sweet Lust.flac Size: 11199963 Hash: 0477485366AB82FF188CEA0E2524AF65 Accuracy: -m0 Conclusion: CDDA 100% Signature: ED017A33BFC377B4B366DD7AFF9BAD5A9521C20EFILE: 13. Myrna's Domain.flac Size: 15802215 Hash: 8C74B83E795B3C76E4B45A8DED84B2AE Accuracy: -m0 Conclusion: CDDA 100% Signature: 2F454C431594B74AB0626CCF9726E0F97F28A5F9FILE: 14. Selene's Trumpet.flac Size: 18378832 Hash: C3EF62AABA985B6ED880A880E2E2939B Accuracy: -m0 Conclusion: CDDA 100% Signature: 537B81824B60C7C095C5924194CA5EB55371A129FILE: 15. Heaven's Bells (Bonus Track).flac Size: 24371812 Hash: 4D208AC9F7016EF0FA9C838F3F2CB891 Accuracy: -m0 Conclusion: CDDA 100% Signature: EB532DA9DB3CB00CDC175041790AD9195034F95D

Замер динамического диапазона

foobar2000 1.3.4 / Замер динамического диапазона (DR) 1.1.1
Дата отчёта: 2017-11-25 21:05:52
--------------------------------------------------------------------------------
Анализ: Cyclamen Valley / A Mist-Flowers Exhibition
--------------------------------------------------------------------------------
DR Пики RMS Продолжительность трека
--------------------------------------------------------------------------------
DR8 0.00 дБ -11.11 дБ 2:05 01-First Thema For Antena
DR10 0.00 дБ -14.18 дБ 3:48 02-Winter's Garden
DR9 0.00 дБ -11.39 дБ 4:18 03-Flower's Grave
DR9 0.00 дБ -12.27 дБ 4:25 04-Quarter To Seven
DR9 0.00 дБ -11.52 дБ 3:30 05-Constance
DR10 0.00 дБ -14.05 дБ 5:12 06-Roses Of Final Flight
DR9 0.00 дБ -10.54 дБ 3:02 07-Mist Flowers Exhibition
DR10 0.00 дБ -12.14 дБ 4:16 08-Libero Stellarum
DR9 0.00 дБ -12.71 дБ 6:00 09-Aveux Et Anathemes
DR10 0.00 дБ -12.78 дБ 3:15 10-Caedes Sub Luna
DR10 0.00 дБ -12.15 дБ 3:26 11-Slowly Sink Into Obsession
DR11 -0.36 дБ -14.54 дБ 2:23 12-Sweet Lust
DR13 0.00 дБ -15.60 дБ 2:45 13-Myrna's Domain
DR10 -0.90 дБ -14.82 дБ 3:42 14-Selene's Trumpet
--------------------------------------------------------------------------------
Количество треков: 14
Реальные значения DR: DR10
Частота: 44100 Гц
Каналов: 2
Разрядность: 16
Битрейт: 659 кбит/с
Кодек: FLAC
================================================================================
--------------------------------------------------------------------------------
Статистика для: 15-Heaven's Bells (Bonus Demo track)
Количество сэмплов: 9967675
Продолжительность: 3:28
--------------------------------------------------------------------------------
Левый Правый
Пики: -0.62 дБ --- -1.37 дБ
Средний RMS: -12.52 дБ --- -13.25 дБ
DR канала: 8.08 дБ --- 8.03 дБ
--------------------------------------------------------------------------------
Реальные значения DR: DR8
Частота: 48000 Гц
Каналов: 2
Разрядность: 16
Битрейт: 936 кбит/с
Кодек: FLAC
================================================================================
-

Состав

Gaetan Paternot, Heidi Kanters, Marc Durant


[galltoto.com]_t_5485249.torrent
Торрент: Зарегистрирован ·  [ 2017-11-30 20:24 ] ·  b716203e5af349441d0b2dfe3f9af6850f95a5ba

12 KB

Статус: проверено
Скачан: 0 раз
Размер: 270 MB
Оценка: 
(Голосов: 0)
Сказали спасибо: 0  Спасибо
Похожие темы
[Профиль]    [ЛС]
Показать сообщения:    
Ответить на тему

Текущее время: Сегодня 12:44

Часовой пояс: GMT + 7



Вы не можете начинать темы
Вы не можете отвечать на сообщения
Вы не можете редактировать свои сообщения
Вы не можете удалять свои сообщения
Вы не можете голосовать в опросах
Вы не можете прикреплять файлы к сообщениям
Вы можете скачивать файлы


Aventure | 2017 Fall Embroidere Ken Paris Tiger Sweater Eyes €23,22 Gekauft von 100+ | GraphicConverter v.10.6.6 Multilanguage (MacOSX)