(Ethereal / Dream Pop / Synthpop) [WEB] Ships In The Night - Ships In The Night (EP) - 2014, FLAC (tracks), lossless

Ответить на тему
Статистика раздачи [Обновить пиров]
Размер:  122 MB   |    Зарегистрирован:  1 год 1 месяц   |    Скачан:  0 раз

Полного источника не было: Никогда

 
   
 
 
 
Автор Сообщение

galltoto.com

Создавать темы 30-Ноя-2017 20:27

[Цитировать]

Ships In The Night / Ships In The Night
Жанр: Ethereal / Dream Pop / Synthpop
Носитель: WEB
Год издания: 2014
Издатель (лейбл): Self-Released
Номер по каталогу: none
Страна исполнителя (группы): USA (Charlottesville, Virginia)
Аудиокодек: FLAC (*.flac)
Тип рипа: tracks
Битрейт аудио: lossless
Продолжительность: 00:21:23
Источник (релизер): bandcamp.com
Наличие сканов в содержимом раздачи: нет
Трек-лист:
01. Dark Places. (04:15)
02. Winter To Come. (04:42)
03. From The Deep. (03:43)
04. The Floor. (04:30)
05. Piece By Piece. (04:13)

Лог проверки качества

-----------------------
DON'T MODIFY THIS FILE
-----------------------
PERFORMER: auCDtect Task Manager, ver. 1.6.0 RC1 build 1.6.0.1Copyright (c) 2008-2010 y-soft. All rights reservedhttp://y-soft.org
ANALYZER: auCDtect: CD records authenticity detector, version 0.8.2Copyright (c) 2004 Oleg Berngardt. All rights reserved.Copyright (c) 2004 Alexander Djourik. All rights reserved.
FILE: 01. Dark Places.flac Size: 26247242 Hash: 1ACADE8E142BA3A01FB43210535AD790 Accuracy: -m0 Conclusion: CDDA 100% Signature: 1CBC2F38FA89D3867240F9565926A06436C836BDFILE: 02. Winter To Come.flac Size: 28038869 Hash: 74B874CD82B540A402C1704B8F9E3661 Accuracy: -m0 Conclusion: CDDA 100% Signature: 81FA97765493BD002739234C0F625F3A04EE624AFILE: 03. From The Deep.flac Size: 21963801 Hash: C983248FBE624ACECD68855B278A7682 Accuracy: -m0 Conclusion: CDDA 100% Signature: C26F7991B27DD68269A1726E567FECB8C50EF4B7FILE: 04. The Floor.flac Size: 27826811 Hash: F0AFC78499D649090764C08D4D1B0F64 Accuracy: -m0 Conclusion: CDDA 100% Signature: FD08896B434B3F03FE4B77567906942164E52F6FFILE: 05. Piece By PIece.flac Size: 23527170 Hash: 6A56621261634C94ECC1F432281EED42 Accuracy: -m0 Conclusion: CDDA 100% Signature: B8BACDEF9B535866AF189CAAECED046A18E27A59

Замер динамического диапазона

foobar2000 1.3.4 / Замер динамического диапазона (DR) 1.1.1
Дата отчёта: 2017-11-27 01:44:52
--------------------------------------------------------------------------------
Анализ: Ships In The Night / Ships In The Night
--------------------------------------------------------------------------------
DR Пики RMS Продолжительность трека
--------------------------------------------------------------------------------
DR5 -0.26 дБ -6.61 дБ 4:15 01-Dark Places
DR4 -0.10 дБ -5.68 дБ 4:42 02-Winter To Come
DR4 -0.20 дБ -6.33 дБ 3:43 03-From The Deep
DR6 -0.10 дБ -6.98 дБ 4:30 04-The Floor
DR6 -0.20 дБ -8.89 дБ 4:13 05-Piece By PIece
--------------------------------------------------------------------------------
Количество треков: 5
Реальные значения DR: DR5
Частота: 44100 Гц
Каналов: 2
Разрядность: 16
Битрейт: 740 кбит/с
Кодек: FLAC
================================================================================
-

Состав

Alethea Leventhal - all music, lyrics & vocals.


[galltoto.com]_t_5485850.torrent
Торрент: Зарегистрирован ·  [ 2017-11-30 20:24 ] ·  070fd476c4c41edef4e766396a6a4a5c30ddf60b

20 KB

Статус: проверено
Скачан: 0 раз
Размер: 122 MB
Оценка: 
(Голосов: 0)
Сказали спасибо: 0  Спасибо
Похожие темы
[Профиль]    [ЛС]
Показать сообщения:    
Ответить на тему

Текущее время: Сегодня 12:43

Часовой пояс: GMT + 7



Вы не можете начинать темы
Вы не можете отвечать на сообщения
Вы не можете редактировать свои сообщения
Вы не можете удалять свои сообщения
Вы не можете голосовать в опросах
Вы не можете прикреплять файлы к сообщениям
Вы можете скачивать файлы


YC YANCH | Total DramaRama Episode 5 | Jessica Rex