(Шансон) Александр Бешеный - Дискография (2 CD) - 2014-2017, FLAC (image+.cue), lossless

Ответить на тему
Статистика раздачи [Обновить пиров]
Размер:  1.03 GB   |    Зарегистрирован:  1 год 1 месяц   |    Скачан:  0 раз

Полного источника не было: Никогда

 
   
 
 
 
Автор Сообщение

galltoto.com

Создавать темы 28-Ноя-2017 19:19

[Цитировать]

- ---Александр Бешеный--- - - ---Жанр: Шансон
Годы издания: 2014-2017
Аудиокодек: FLAC | MP3
Тип рипа: tracks
Битрейт аудио: lossless
Продолжительность: 02:17:07
Источник (релизер): [url=profile.php?mode=viewprofile&u=22110310]shansonchik[/url]
Наличие сканов в содержимом раздачи: да | 600 dpi |
--- -Альбомы-

| 01:05:05 | – 2014 – Песни братьев Корниловых

-01 - Вступление | Александр Фрумин
02 - Моя любимая, моя
03 - Босиком по облакам
04 - Другая
05 - Напополам
06 - Шансонье
07 - Зыбучий песок
08 - Лагеря
09 - Свиданка
10 - Колыма
11 - Веня (feat. Кай)
12 - Нинок
13 - Вертухай
14 - Удача - 1
15 - Под дождём
16 - Исповедь
17 - Тьма
18 - С чистого листа | исполняет: Олег Корнилов
19 - Кони | исполняет: Игорь Корнилов (Килай)

Лог создания рипа

Exact Audio Copy V1.0 beta 4 from 7. December 2014
Отчёт EAC об извлечении, выполненном 25. ноября 2017, 10:17
Александр Бешеный / Песни братьев Корниловых
Дисковод: ASUS DRW-1814BL Adapter: 1 ID: 0
Режим чтения : ДостоверностьИспользование точного потока : ДаОтключение кэша аудио : ДаИспользование указателей C2 : Нет
Коррекция смещения при чтении : 6Способность читать области Lead-in и Lead-out : НетЗаполнение пропущенных сэмплов тишиной : ДаУдаление блоков с тишиной в начале и конце : НетПри вычислениях CRC использовались нулевые сэмплы : ДаИнтерфейс : Встроенный Win32-интерфейс для Win NT/2000
Выходной формат : Пользовательский кодировщикВыбранный битрейт : 128 kBit/sКачество : ВысокийДобавление ID3-тега : НетУтилита сжатия : C:\Program Files\Exact Audio Copy\Flac\flac.exeДополнительные параметры : -V -8 -T "Date=%year%" -T "Genre=%genre%" %source%
TOC извлечённого CD
Трек | Старт | Длительность | Начальный сектор | Конечный сектор --------------------------------------------------------------------- 1 | 0:00.00 | 0:17.33 | 0 | 1307 2 | 0:17.33 | 4:12.25 | 1308 | 20232 3 | 4:29.58 | 4:01.16 | 20233 | 38323 4 | 8:30.74 | 3:11.62 | 38324 | 52710 5 | 11:42.61 | 3:50.46 | 52711 | 70006 6 | 15:33.32 | 2:37.23 | 70007 | 81804 7 | 18:10.55 | 4:06.13 | 81805 | 100267 8 | 22:16.68 | 4:22.06 | 100268 | 119923 9 | 26:38.74 | 3:08.47 | 119924 | 134070 10 | 29:47.46 | 3:10.53 | 134071 | 148373 11 | 32:58.24 | 2:31.13 | 148374 | 159711 12 | 35:29.37 | 2:48.01 | 159712 | 172312 13 | 38:17.38 | 3:40.30 | 172313 | 188842 14 | 41:57.68 | 3:15.14 | 188843 | 203481 15 | 45:13.07 | 2:56.60 | 203482 | 216741 16 | 48:09.67 | 4:38.69 | 216742 | 237660 17 | 52:48.61 | 4:05.44 | 237661 | 256079 18 | 56:54.30 | 3:37.19 | 256080 | 272373 19 | 60:31.49 | 4:33.33 | 272374 | 292881
Характеристики диапазона извлечения и сообщения об ошибках
Выбранный диапазон
Имя файла E:\shansonchik\Александр Бешеный - Песни братьев Корниловых.wav
Пиковый уровень 98.7 % Скорость извлечения 4.9 X Качество диапазона 100.0 % CRC теста EBB57BF6 CRC копии EBB57BF6 Копирование... OK
Ошибок не произошло
Конец отчёта
==== Контрольная сумма отчёта F24D58E55140981D3991D4A5E21A5F04ED260402F1BD6776626DF758D76229B1 ====

Tau Analyzer

| 01:12:02 | – 2017 – Любовь...

-01 - Любить тебя
02 - Рыжая
03 - День и ночь
04 - Забыть (feat. Кай)
05 - Девчонки!
06 - Любимая моя
07 - Любовь ненавидишь
08 - Париж
09 - Моя мечта
10 - Шорох
11 - За полночь
12 - Нежность (feat. Стефани)
13 - Пустота
14 - Гуляйте, девочки
15 - Рыжее солнышко
16 - Я не могу
17 - Эх! Молодёжь!
18 - Удача - 2

Лог создания рипа

Exact Audio Copy V1.0 beta 4 from 7. December 2014
Отчёт EAC об извлечении, выполненном 25. ноября 2017, 10:57
Александр Бешеный / Любовь...
Дисковод: ASUS DRW-1814BL Adapter: 1 ID: 0
Режим чтения : ДостоверностьИспользование точного потока : ДаОтключение кэша аудио : ДаИспользование указателей C2 : Нет
Коррекция смещения при чтении : 6Способность читать области Lead-in и Lead-out : НетЗаполнение пропущенных сэмплов тишиной : ДаУдаление блоков с тишиной в начале и конце : НетПри вычислениях CRC использовались нулевые сэмплы : ДаИнтерфейс : Встроенный Win32-интерфейс для Win NT/2000
Выходной формат : Пользовательский кодировщикВыбранный битрейт : 128 kBit/sКачество : ВысокийДобавление ID3-тега : НетУтилита сжатия : C:\Program Files\Exact Audio Copy\Flac\flac.exeДополнительные параметры : -V -8 -T "Date=%year%" -T "Genre=%genre%" %source%
TOC извлечённого CD
Трек | Старт | Длительность | Начальный сектор | Конечный сектор --------------------------------------------------------------------- 1 | 0:00.00 | 3:18.58 | 0 | 14907 2 | 3:18.58 | 3:27.22 | 14908 | 30454 3 | 6:46.05 | 4:40.72 | 30455 | 51526 4 | 11:27.02 | 4:42.16 | 51527 | 72692 5 | 16:09.18 | 3:18.73 | 72693 | 87615 6 | 19:28.16 | 2:47.48 | 87616 | 100188 7 | 22:15.64 | 4:27.41 | 100189 | 120254 8 | 26:43.30 | 3:55.48 | 120255 | 137927 9 | 30:39.03 | 4:06.40 | 137928 | 156417 10 | 34:45.43 | 4:31.48 | 156418 | 176790 11 | 39:17.16 | 3:44.47 | 176791 | 193637 12 | 43:01.63 | 4:41.52 | 193638 | 214764 13 | 47:43.40 | 5:31.44 | 214765 | 239633 14 | 53:15.09 | 4:13.23 | 239634 | 258631 15 | 57:28.32 | 3:11.08 | 258632 | 272964 16 | 60:39.40 | 3:09.44 | 272965 | 287183 17 | 63:49.09 | 4:49.17 | 287184 | 308875 18 | 68:38.26 | 3:24.01 | 308876 | 324176
Характеристики диапазона извлечения и сообщения об ошибках
Выбранный диапазон
Имя файла E:\shansonchik\Александр Бешеный - Любовь....wav
Пиковый уровень 89.7 % Скорость извлечения 5.1 X Качество диапазона 100.0 % CRC теста 364182D6 CRC копии 364182D6 Копирование... OK
Ошибок не произошло
Конец отчёта
==== Контрольная сумма отчёта B00C960C8873D0DFDC9E2F57DC145F3E66BD334A0D711982E966176E0E3187E3 ====

Tau Analyzer

-


[galltoto.com]_t_5149922.torrent
Торрент: Зарегистрирован ·  [ 2017-11-28 19:18 ] ·  741cce066b673b110018ee3c799263a5eaa7cf3c

12 KB

Статус: проверено
Скачан: 0 раз
Размер: 1.03 GB
Оценка: 
(Голосов: 0)
Сказали спасибо: 0  Спасибо
Похожие темы
[Профиль]    [ЛС]
Показать сообщения:    
Ответить на тему

Текущее время: Сегодня 13:24

Часовой пояс: GMT + 7



Вы не можете начинать темы
Вы не можете отвечать на сообщения
Вы не можете редактировать свои сообщения
Вы не можете удалять свои сообщения
Вы не можете голосовать в опросах
Вы не можете прикреплять файлы к сообщениям
Вы можете скачивать файлы


Hair Straighteners | Thám Tử Lừng Danh Conan chap 423 | HD Thugs of Hindostan (Telugu)