Scars on Broadway - Area 4 Festival, Ludinghausen, Germany, 31.08.2008 [2008, Alternative Rock, DTVRip]

Ответить на тему
Статистика раздачи [Обновить пиров]
Размер:  2.25 GB   |    Зарегистрирован:  1 год 6 месяцев   |    Скачан:  0 раз

Полного источника не было: Никогда

 
   
 
 
 
Автор Сообщение

galltoto.com

Создавать темы 02-Июл-2017 22:42

[Цитировать]

Scars on Broadway - Area 4 Festival, Ludinghausen, Germany, 31.08.2008
Страна: США
Жанр: Alternative Rock
Продолжительность: 00:44:39
Год выхода: 2008
Описание: Концерт группы Scars on Broadway, который состоялся в Германии 31.08.2008.
Треклист:
01. Serious
02. I Like Suicide
03. Stoner Hate
04. World Long Gone
05. Enemy
06. Scars On Broadway
07. Whoring Streets
08. Insane
09. Kill Each Other / Live Forever
10. Chemicals
11. Universe
12. 3005
13. Funny
14. Cute Machines
15. They Say
Разбивка на главы по трекам: есть (выбора из меню нет)
Качество: DTVRip
Формат файла: DVD Video
Видео кодек: MPEG2
Аудио кодек: MP2
Видео: PAL 16:9 (720x576), 25 fps, 6877 kbps
Аудио: MP2, 48 kHz, stereo, 192 kbps

DVDinfo+MediaInfo

Title: Scars on Broadway live AREA 4 FESTIVAL, LUDINGHAUSEN, GERMANY_by_SOADLatviaSize: 2.25 Gb ( 2 356 164,00 KBytes ) - DVD-5Enabled regions: 1, 2, 3, 4, 5, 6, 7, 8
VTS_01 : Play Length: 00:44:39 Video: PAL 16:9 (720x576) VBR, Auto Letterboxed Audio: Not specified, MPA, Delay = 0 mSec
* Menus Information *
VIDEO_TS MenuVideo: PAL 4:3 (720x576) VBRLanguage Unit : Title Menu
VTS_01 MenuVideo: NTSC 4:3 (720x480) VBR Auto Pan&Scan, Auto LetterboxedLanguage Unit : Subpicture Menu Angle menuLanguage Unit : Subpicture Menu Angle menuLanguage Unit : Subpicture Menu Angle menuLanguage Unit : Subpicture Menu Angle menuLanguage Unit : Subpicture Menu Angle menu
ОбщееПолное имя : C:\Scars on Broadway live AREA 4 FESTIVAL, LUDINGHAUSEN, GERMANY_by_SOADLatvia\VIDEO_TS\VIDEO_TS.BUPФормат файла : DVD VideoПрофиль формата : MenuРазмер файла : 12,0 КбайтРежим общего битрейта : Переменный
ВидеоИдентификатор : 224 (0xE0)Формат файла : MPEG VideoВерсия формата : Version 2Вид битрейта : ПеременныйШирина : 720 пикселейВысота : 576 пикселейСоотношение сторон : 4:3Частота кадров : 25,000 кадров/секСтандарт вещания : PALМетод сжатия : С потерями
ТекстФормат файла : RLEФормат файла/Информация : Run-length encodingБитовая глубина : 2 бит
ОбщееПолное имя : C:\Scars on Broadway live AREA 4 FESTIVAL, LUDINGHAUSEN, GERMANY_by_SOADLatvia\VIDEO_TS\VIDEO_TS.IFOФормат файла : DVD VideoПрофиль формата : MenuРазмер файла : 12,0 КбайтРежим общего битрейта : Переменный
ВидеоИдентификатор : 224 (0xE0)Формат файла : MPEG VideoВерсия формата : Version 2Вид битрейта : ПеременныйШирина : 720 пикселейВысота : 576 пикселейСоотношение сторон : 4:3Частота кадров : 25,000 кадров/секСтандарт вещания : PALМетод сжатия : С потерями
ТекстФормат файла : RLEФормат файла/Информация : Run-length encodingБитовая глубина : 2 бит
ОбщееПолное имя : C:\Scars on Broadway live AREA 4 FESTIVAL, LUDINGHAUSEN, GERMANY_by_SOADLatvia\VIDEO_TS\VIDEO_TS.VOBФормат файла : MPEG-PSРазмер файла : 456 КбайтПродолжительность : 520 мс.Общий поток : 7184 Кбит/сек
ВидеоИдентификатор : 224 (0xE0)Формат файла : MPEG VideoВерсия формата : Version 2Профиль формата : Main@MainПараметр BVOP формата : НетПараметр матрицы формата : ВыборочнаяПродолжительность : 520 мс.Максимальный битрейт : 7000 Кбит/секШирина : 720 пикселейВысота : 576 пикселейСоотношение сторон : 4:3Частота кадров : 25,000 кадров/секСтандарт вещания : PALЦветовое пространство : YUVСубдискретизация насыщенности : 4:2:0Битовая глубина : 8 битТип развёртки : ПрогрессивнаяМетод сжатия : С потерямиВременной код первого кадра : 00:00:00:00Оригинал временного кода : Group of pictures headerОсновные цвета : BT.601 PALХарактеристики трансфера : BT.470 System B, BT.470 System GКоэффициенты матрицы : FCC 73.682
ТекстИдентификатор : 189 (0xBD)-32 (0x20)Формат файла : RLEФормат файла/Информация : Run-length encodingРежим смешивания : DVD-Video
Меню
ОбщееПолное имя : C:\Scars on Broadway live AREA 4 FESTIVAL, LUDINGHAUSEN, GERMANY_by_SOADLatvia\VIDEO_TS\VTS_01_0.BUPФормат файла : DVD VideoПрофиль формата : ProgramРазмер файла : 36,0 КбайтПродолжительность : 44 м.Режим общего битрейта : ПеременныйОбщий поток : 110 бит/сек
ВидеоИдентификатор : 224 (0xE0)Формат файла : MPEG VideoВерсия формата : Version 2Продолжительность : 44 м.Вид битрейта : ПеременныйШирина : 720 пикселейВысота : 576 пикселейСоотношение сторон : 16:9Частота кадров : 25,000 кадров/секСтандарт вещания : PALМетод сжатия : С потерями
АудиоИдентификатор : 0 (0x0)Формат файла : MPEG AudioПрофиль формата : Version 1Продолжительность : 44 м.Каналы : 2 каналаЧастота : 48,0 КГцМетод сжатия : С потерями
МенюПродолжительность : 44 м.00:00:00.000 : Chapter 100:02:01.480 : Chapter 200:04:17.320 : Chapter 300:06:18.280 : Chapter 400:09:31.240 : Chapter 500:12:49.480 : Chapter 600:15:34.600 : Chapter 700:18:31.720 : Chapter 800:21:30.760 : Chapter 900:24:26.920 : Chapter 1000:27:40.360 : Chapter 1100:32:08.680 : Chapter 1200:35:00.040 : Chapter 1300:37:48.040 : Chapter 1400:42:02.920 : Chapter 15List (Audio) : 0
ОбщееПолное имя : C:\Scars on Broadway live AREA 4 FESTIVAL, LUDINGHAUSEN, GERMANY_by_SOADLatvia\VIDEO_TS\VTS_01_0.IFOФормат файла : DVD VideoПрофиль формата : ProgramРазмер файла : 36,0 КбайтПродолжительность : 44 м.Режим общего битрейта : ПеременныйОбщий поток : 110 бит/сек
ВидеоИдентификатор : 224 (0xE0)Формат файла : MPEG VideoВерсия формата : Version 2Продолжительность : 44 м.Вид битрейта : ПеременныйШирина : 720 пикселейВысота : 576 пикселейСоотношение сторон : 16:9Частота кадров : 25,000 кадров/секСтандарт вещания : PALМетод сжатия : С потерями
АудиоИдентификатор : 0 (0x0)Формат файла : MPEG AudioПрофиль формата : Version 1Продолжительность : 44 м.Каналы : 2 каналаЧастота : 48,0 КГцМетод сжатия : С потерями
МенюПродолжительность : 44 м.00:00:00.000 : Chapter 100:02:01.480 : Chapter 200:04:17.320 : Chapter 300:06:18.280 : Chapter 400:09:31.240 : Chapter 500:12:49.480 : Chapter 600:15:34.600 : Chapter 700:18:31.720 : Chapter 800:21:30.760 : Chapter 900:24:26.920 : Chapter 1000:27:40.360 : Chapter 1100:32:08.680 : Chapter 1200:35:00.040 : Chapter 1300:37:48.040 : Chapter 1400:42:02.920 : Chapter 15List (Audio) : 0
ОбщееПолное имя : C:\Scars on Broadway live AREA 4 FESTIVAL, LUDINGHAUSEN, GERMANY_by_SOADLatvia\VIDEO_TS\VTS_01_1.VOBФормат файла : MPEG-PSРазмер файла : 1024 МбайтПродолжительность : 19 м.Режим общего битрейта : ПеременныйОбщий поток : 7194 Кбит/секБиблиотека кодирования : (c) 1998-2007 Womble Multimedia, Inc. / MPEG Video Wizard (04/2007) / Jul 22 2007
ВидеоИдентификатор : 224 (0xE0)Формат файла : MPEG VideoВерсия формата : Version 2Профиль формата : Main@MainПараметр BVOP формата : ДаПараметр матрицы формата : ВыборочнаяПараметр GOP формата : M=3, N=12Структура изображения : FrameПродолжительность : 19 м.Вид битрейта : ПеременныйБитрейт : 6859 Кбит/секМаксимальный битрейт : 9000 Кбит/секШирина : 720 пикселейВысота : 576 пикселейСоотношение сторон : 16:9Частота кадров : 25,000 кадров/секСтандарт вещания : PALЦветовое пространство : YUVСубдискретизация насыщенности : 4:2:0Битовая глубина : 8 битТип развёртки : ЧересстрочнаяПорядок развёртки : Верхнее поле первоеМетод сжатия : С потерямиБит/(Пиксели*Кадры) : 0.662Временной код первого кадра : 00:00:00:00Оригинал временного кода : Group of pictures headerGOP, открыто/закрыто : ОткрытоGOP, открыто/закрыто на первом кадре : ЗакрытоРазмер потока : 976 Мбайт (95%)Библиотека кодирования : (c) 1998-2007 Womble Multimedia, Inc. / MPEG Video Wizard (04/2007) / Jul 22 2007
АудиоИдентификатор : 192 (0xC0)Формат файла : MPEG AudioВерсия формата : Version 1Профиль формата : Layer 2Продолжительность : 19 м.Вид битрейта : ПостоянныйБитрейт : 192 Кбит/секКаналы : 2 каналаЧастота : 48,0 КГцМетод сжатия : С потерямиРазмер потока : 27,3 Мбайт (3%)
Меню
ОбщееПолное имя : C:\Scars on Broadway live AREA 4 FESTIVAL, LUDINGHAUSEN, GERMANY_by_SOADLatvia\VIDEO_TS\VTS_01_2.VOBФормат файла : MPEG-PSРазмер файла : 1024 МбайтПродолжительность : 19 м.Режим общего битрейта : ПеременныйОбщий поток : 7206 Кбит/сек
ВидеоИдентификатор : 224 (0xE0)Формат файла : MPEG VideoВерсия формата : Version 2Профиль формата : Main@MainПараметр BVOP формата : ДаПараметр матрицы формата : ВыборочнаяПараметр GOP формата : M=3, N=12Структура изображения : FrameПродолжительность : 19 м.Вид битрейта : ПеременныйБитрейт : 6871 Кбит/секМаксимальный битрейт : 9000 Кбит/секШирина : 720 пикселейВысота : 576 пикселейСоотношение сторон : 16:9Частота кадров : 25,000 кадров/секСтандарт вещания : PALЦветовое пространство : YUVСубдискретизация насыщенности : 4:2:0Битовая глубина : 8 битТип развёртки : ЧересстрочнаяПорядок развёртки : Верхнее поле первоеМетод сжатия : С потерямиБит/(Пиксели*Кадры) : 0.663Временной код первого кадра : 00:19:53:20Оригинал временного кода : Group of pictures headerGOP, открыто/закрыто : ОткрытоРазмер потока : 976 Мбайт (95%)
АудиоИдентификатор : 192 (0xC0)Формат файла : MPEG AudioВерсия формата : Version 1Профиль формата : Layer 2Продолжительность : 19 м.Вид битрейта : ПостоянныйБитрейт : 192 Кбит/секКаналы : 2 каналаЧастота : 48,0 КГцМетод сжатия : С потерямиЗадержка видео : -312 мс.Размер потока : 27,3 Мбайт (3%)
Меню
ОбщееПолное имя : C:\Scars on Broadway live AREA 4 FESTIVAL, LUDINGHAUSEN, GERMANY_by_SOADLatvia\VIDEO_TS\VTS_01_3.VOBФормат файла : MPEG-PSРазмер файла : 253 МбайтПродолжительность : 4 м. 54 с.Режим общего битрейта : ПеременныйОбщий поток : 7203 Кбит/сек
ВидеоИдентификатор : 224 (0xE0)Формат файла : MPEG VideoВерсия формата : Version 2Профиль формата : Main@MainПараметр BVOP формата : ДаПараметр матрицы формата : ВыборочнаяПараметр GOP формата : M=3, N=12Структура изображения : FrameПродолжительность : 4 м. 54 с.Вид битрейта : ПеременныйБитрейт : 6868 Кбит/секМаксимальный битрейт : 9000 Кбит/секШирина : 720 пикселейВысота : 576 пикселейСоотношение сторон : 16:9Частота кадров : 25,000 кадров/секСтандарт вещания : PALЦветовое пространство : YUVСубдискретизация насыщенности : 4:2:0Битовая глубина : 8 битТип развёртки : ЧересстрочнаяПорядок развёртки : Верхнее поле первоеМетод сжатия : С потерямиБит/(Пиксели*Кадры) : 0.662Временной код первого кадра : 00:39:45:16Оригинал временного кода : Group of pictures headerGOP, открыто/закрыто : ОткрытоРазмер потока : 241 Мбайт (95%)
АудиоИдентификатор : 192 (0xC0)Формат файла : MPEG AudioВерсия формата : Version 1Профиль формата : Layer 2Продолжительность : 4 м. 54 с.Вид битрейта : ПостоянныйБитрейт : 192 Кбит/секКаналы : 2 каналаЧастота : 48,0 КГцМетод сжатия : С потерямиЗадержка видео : -336 мс.Размер потока : 6,74 Мбайт (3%)
Меню

Разбивка на главы

Скриншот меню

Скриншоты



[galltoto.com]_t_1124201.torrent
Торрент: Зарегистрирован ·  [ 2017-07-02 22:42 ] ·  6525a80bb5ea88b8563c90eec6e72d2390c7f049

12 KB

Статус: проверено
Скачан: 0 раз
Размер: 2.25 GB
Оценка: 
(Голосов: 0)
Сказали спасибо: 0  Спасибо
Похожие темы
[Профиль]    [ЛС]
Показать сообщения:    
Ответить на тему

Текущее время: Сегодня 12:44

Часовой пояс: GMT + 7



Вы не можете начинать темы
Вы не можете отвечать на сообщения
Вы не можете редактировать свои сообщения
Вы не можете удалять свои сообщения
Вы не можете голосовать в опросах
Вы не можете прикреплять файлы к сообщениям
Вы можете скачивать файлы


Avery Brooks | Cẩm Lý Quy | IMDb: 6 HD Colette