Juan Ruiz: Bachata Moderna 3 [2011, Bachata, DVDRip, ENG] (Видеоурок)

Ответить на тему
Статистика раздачи [Обновить пиров]
Размер:  671 MB   |    Зарегистрирован:  1 год 10 месяцев   |    Скачан:  1 раз

Полного источника не было: 8 месяцев

 
   
 
 
 
Автор Сообщение

galltoto.com

Создавать темы 14-Мар-2017 10:00

[Цитировать]

Juan Ruiz: Bachata Moderna 3
Страна: Australia
Тематика: Bachata
Тип раздаваемого материала: Видеоурок
Продолжительность: 00:51:57
Год выхода: 2011
Язык: Английский
Перевод: Отсутствует
Язык субтитров: Отсутствует
Описание: Этот диск даст вым лучшее из стиля Bachata Moderna. После того как вы освоили основы, этот диск поможет вам поднять танцевание на новый уровень.
Хуан Руиз (Juan Ruiz) и Саманта Сила (Samantha Cilla) - основные инструкторы студии Bachateros, вместе с Josie Cote (Джози Котэ) (Австралийский чемпион по сальсе 2009-го года), покажут вам как легко вести и следовать этим сложным комбинациям бачаты.
Bachata Moderna включает концепцию кроссов и привкус зука, кизомбы, танго и R&B. Бачатеро могут невероятно талантливо использовать элементы этих танцев и несмотря на это оставаться верными настроящей форме бачаты, поддерживая чувства и эмоциональные элементы которые делают бачату такой какая она есть.
Хуан Руиз известен как отец бачаты в Австралии, он один из самых известных промоутеров бачаты в мире и пионер стиля Bachata Moderna. Он также директор журнала Bachateros Online Magazine.

Содержание:

Introduction
Chapter 1: More fundamentals
Twist hip (Caminito)
Quick back Step (Q.S.B.)
Step and Go (S.A.G)
Chapter 2: The washing machine
Chapter 3: Slow Turn to Q.S.B. Combo
Chapter 4: Twist Hip Funky Combo
Chapter 5: Cross on 3 to S.A.G. exit
Chapter 6: Cross on 3 turn to Ladies walkthrough
Chapter 7: Ladies walk to hip turn
Chapter 8: About turn Combo
Chapter 9: Advanced exit on1
Chapter 10: BONUS MOVE: the Vine plus Flares
Social dance
Farewell
Credits and Bloopers
Качество : DVDRip
Формат файла: AVI
Видео кодек: XviD
Аудио кодек: MP3
Видео: 640x480 (1.33:1), 29.970 fps, XviD Lavf51.12.1~1 664 kbps avg, 0.181/pixel
Аудио: 44.1 kHz, MPEG Layer 3, 2 ch, ~128.00 kbps Constant

Отчет MediaInfo

General
Complete name : Juan Ruiz - Bachata Moderna 3\Juan Ruiz - Bachata Moderna 3.avi
Format : AVI
Format/Info : Audio Video Interleave
File size : 671 MiB
Duration : 51mn 57s
Overall bit rate : 1 806 Kbps
Writing application : Lavf51.12.1
Video
ID : 0
Format : xvid
Codec ID : xvid
Duration : 51mn 57s
Bit rate : 1 664 Kbps
Width : 640 pixels
Height : 480 pixels
Display aspect ratio : 4:3
Frame rate : 29.970 fps
Bits/(Pixel*Frame) : 0.181
Stream size : 618 MiB (92%)
Audio
ID : 1
Format : MPEG Audio
Format version : Version 1
Format profile : Layer 3
Mode : Joint stereo
Mode extension : MS Stereo
Codec ID : 55
Codec ID/Hint : MP3
Duration : 51mn 56s
Bit rate mode : Constant
Bit rate : 128 Kbps
Channel(s) : 2 channels
Sampling rate : 44.1 KHz
Stream size : 47.6 MiB (7%)
Alignment : Aligned on interleaves
Interleave, duration : 26 ms (0.78 video frame)
Writing library : LAME3.97

Скриншоты

Скринлист



[galltoto.com]_t_3526093.torrent
Торрент: Зарегистрирован ·  [ 2017-03-14 10:00 ] ·  7d88e7c662f731af6c13099f190b376936a51cd4

14 KB

Статус: проверено
Скачан: 1 раз
Размер: 671 MB
Оценка: 
(Голосов: 0)
Сказали спасибо: 0  Спасибо
Похожие темы
[Профиль]    [ЛС]
Показать сообщения:    
Ответить на тему

Текущее время: Сегодня 01:59

Часовой пояс: GMT + 7



Вы не можете начинать темы
Вы не можете отвечать на сообщения
Вы не можете редактировать свои сообщения
Вы не можете удалять свои сообщения
Вы не можете голосовать в опросах
Вы не можете прикреплять файлы к сообщениям
Вы можете скачивать файлы


kkrammer | Baixar toque para celular | Distancia: más cercanos primero